Blue System - Body Heat (Promo Picture CD) ©1988, (EuroDisco), APE (image+.cue), lossless

Ответить на тему
 
Автор
Сообщение

Admiral ®

Пол:

Стаж: 7 лет 2 месяца

Сообщений: 606

Репутация: 146 [+] [-]

Пост 18-Мар-2014 22:14

[Цитировать] 

--Blue System - Body Heat (Promo Picture CD)-- Жанр: EuroDisco
Страна-производитель диска: W. Germany
Год издания диска: 1988
Издатель (лейбл): Hansa
Номер по каталогу: 259 461
Страна: Germany
Аудиокодек: APE (*.ape)
Тип рипа: image+.cue
Битрейт аудио: lossless
Продолжительность: 00:37:18
Наличие сканов в содержимом раздачи: да
Треклист:


1. Under My Skin 3:31
2. Do You Wanna Be My Girlfriend 3:55
3. Titanic 650604 3:23
4. Love Suite 3:17
5. Body Heat 3:04
6. My Bed Is Too Big 3:13
7. Too Young 3:39
8. Sorry Little Sarah (New York Dance Mix) 5:56
9. Silent Water (Aus Dem Schimanski-Tatort "Moltke") 3:34
10. I Want To Be Your Brother 3:12

Отчёт EAC

Exact Audio Copy V1.0 beta 3 from 29. August 2011
Отчёт EAC об извлечении, выполненном 21. октября 2011, 22:20
Blue System / Body Heat (Promotion Picture CD)
Дисковод: PLEXTOR CD-R PREMIUM2 Adapter: 0 ID: 0
Режим чтения : Достоверность
Использование точного потока : Да
Отключение кэша аудио : Да
Использование указателей C2 : Нет
Коррекция смещения при чтении : 30
Способность читать области Lead-in и Lead-out : Нет
Заполнение пропущенных сэмплов тишиной : Да
Удаление блоков с тишиной в начале и конце : Нет
При вычислениях CRC использовались нулевые сэмплы : Да
Интерфейс : Встроенный Win32-интерфейс для Win NT/2000
Выходной формат : Внутренние WAV-операции
Формат сэмплов : 44.100 Гц; 16 бит; стерео
TOC извлечённого CD
Трек | Старт | Длительность | Начальный сектор | Конечный сектор
---------------------------------------------------------------------
1 | 0:00.33 | 3:33.67 | 33 | 16074
2 | 3:34.25 | 3:59.65 | 16075 | 34064
3 | 7:34.15 | 3:26.38 | 34065 | 49552
4 | 11:00.53 | 3:22.55 | 49553 | 64757
5 | 14:23.33 | 3:08.50 | 64758 | 78907
6 | 17:32.08 | 3:17.50 | 78908 | 93732
7 | 20:49.58 | 3:43.02 | 93733 | 110459
8 | 24:32.60 | 6:00.35 | 110460 | 137494
9 | 30:33.20 | 3:28.35 | 137495 | 153129
10 | 34:01.55 | 3:15.68 | 153130 | 167822
Характеристики диапазона извлечения и сообщения об ошибках
Выбранный диапазон
Имя файла D:\Blue System - Body Heat - Promotion Picture CD (Hansa 259 461)\Blue System - Body Heat (Promotion Picture CD).wav
Пиковый уровень 95.0 %
Скорость извлечения 5.4 X
Качество диапазона 100.0 %
CRC теста C3637F56
CRC копии C3637F56
Копирование... OK
Ошибок не произошло
AccurateRip: сводка
Трек 1 : извлечено точно (доверие 1) [92C78722] (AR v1)
Трек 2 : извлечено точно (доверие 1) [43F314FB] (AR v1)
Трек 3 : извлечено точно (доверие 1) [34FD73B6] (AR v1)
Трек 4 : извлечено точно (доверие 1) [421421CE] (AR v1)
Трек 5 : извлечено точно (доверие 1) [1659B811] (AR v1)
Трек 6 : извлечено точно (доверие 1) [16BC85E1] (AR v1)
Трек 7 : извлечено точно (доверие 1) [32C02631] (AR v1)
Трек 8 : извлечено точно (доверие 1) [B2F1A350] (AR v1)
Трек 9 : извлечено точно (доверие 1) [D9DE75DF] (AR v1)
Трек 10 : извлечено точно (доверие 1) [3A52EF57] (AR v1)
Все треки извлечены точно
Конец отчёта

[Торрент-статистика]
[Профиль]  [ЛС] 
Показать сообщения:    
Ответить на тему

Текущее время: Сегодня 08:22

Часовой пояс: GMT + 4



Вы не можете начинать темы
Вы не можете отвечать на сообщения
Вы не можете редактировать свои сообщения
Вы не можете удалять свои сообщения
Вы не можете голосовать в опросах
Вы не можете прикреплять файлы к сообщениям
Вы не можете скачивать файлы