Modern Clubbing - Cheri Cheri Lady (CD-Maxi) - 2003, (EuroDisco/House), FLAC (image + .cue), lossless

Ответить на тему
 
Автор
Сообщение

Admiral ®

Пол:

Стаж: 7 лет 2 месяца

Сообщений: 606

Репутация: 146 [+] [-]

Пост 18-Мар-2014 11:27

[Цитировать] 

--Modern Clubbing - Cheri Cheri Lady (CD-Maxi)--
Жанр: EuroDisco/House
Год выпуска диска: 2003
Производитель диска: Germany
Аудио кодек: FLAC
Тип рипа: image+.cue
Битрейт аудио: lossless
Продолжительность: 00:34:21
Треклист:


01. Cheri Cheri Lady (Radio Mix) 02:55
02. Cheri Cheri Lady (Club Mix) 05:44
03. Cheri Cheri Lady (Ole Van Dansk Remix) 06:36
04. Cheri Cheri Lady (Tory Kay Remix) 06:03
05. Cheri Cheri Lady (DJs & One Remix) 06:53
06. Cheri Cheri Lady (Raccoon Remix) 06:08

Back

Отчет EAC

Exact Audio Copy V0.99 prebeta 4 from 23. January 2008
Отчёт EAC об извлечении, выполненном 22. июня 2008, 22:04
Modern Clubbing / Cheri Cheri Lady
Дисковод: PLEXTOR DVDR PX-810UF Adapter: 2 ID: 0
Режим чтения : Достоверность
Использование точного потока : Да
Отключение кэша аудио : Да
Использование указателей C2 : Нет
Коррекция смещения при чтении : 667
Способность читать области Lead-in и Lead-out : Нет
Заполнение пропущенных сэмплов тишиной : Да
Удаление блоков с тишиной в начале и конце : Нет
При вычислениях CRC использовались нулевые сэмплы : Нет
Интерфейс : Встроенный Win32-интерфейс для Win NT/2000
Выходной формат : Внутренние WAV-операции
Формат сэмплов : 44.100 Гц; 16 бит; стерео
TOC извлечённого CD
Трек | Старт | Длительность | Начальный сектор | Конечный сектор
---------------------------------------------------------------------
1 | 0:00.00 | 2:55.20 | 0 | 13144
2 | 2:55.20 | 5:44.43 | 13145 | 38987
3 | 8:39.63 | 6:36.44 | 38988 | 68731
4 | 15:16.32 | 6:03.27 | 68732 | 95983
5 | 21:19.59 | 6:53.36 | 95984 | 126994
6 | 28:13.20 | 6:08.47 | 126995 | 154641
Характеристики диапазона извлечения и сообщения об ошибках
Выбранный диапазон
Имя файла Z:\Temp\Modern Clubbing - Cheri Cheri Lady.wav
Пиковый уровень 100.0 %
Качество диапазона 100.0 %
CRC теста 09CFB5FE
CRC копии 09CFB5FE
Копирование... OK
Ошибок не произошло
AccurateRip: сводка
Трек 1 нет в базе данных
Трек 2 нет в базе данных
Трек 3 нет в базе данных
Трек 4 нет в базе данных
Трек 5 нет в базе данных
Трек 6 нет в базе данных
Ни одного трека нет в базе AccurateRip
Конец отчёта
Интересные перепевки и миксы на тему MT - Cheri Cheri Lady. В коллекцию.
[Торрент-статистика]
[Профиль]  [ЛС] 
Показать сообщения:    
Ответить на тему

Текущее время: Сегодня 05:47

Часовой пояс: GMT + 4



Вы не можете начинать темы
Вы не можете отвечать на сообщения
Вы не можете редактировать свои сообщения
Вы не можете удалять свои сообщения
Вы не можете голосовать в опросах
Вы не можете прикреплять файлы к сообщениям
Вы не можете скачивать файлы