VA - I Love Italo Disco Legends Vol.2 - 2011, (Italo-Disco), FLAC (image+.cue), lossless

Ответить на тему
 
Автор
Сообщение

Admiral ®

Пол:

Стаж: 7 лет 2 месяца

Сообщений: 606

Репутация: 146 [+] [-]

Пост 18-Мар-2014 11:11

[Цитировать] 

--Various Artists - I Love Italo Disco Legends Vol.2 -- Жанр: Italo-Disco
Страна-производитель диска: Spain
Год издания диска: 2011
Издатель (лейбл): Blanco Y Negro
Номер по каталогу: MXCD 2173 C
Аудио кодек: FLAC (*.flac)
Тип рипа: image+.cue
Битрейт аудио: lossless
Продолжительность: 01:18:57
Наличие сканов в содержимом раздачи: да
Трэклист:
01. Hotline - Fantasy (Canadian Version) 6:49
02. K.I.D. - Come And Get It 6:45
03. Den Harrow - To Meet Me (D Version) 6:27
04. The Creatures - Believe In Yourself (Orig. Mix) 6:21
05. Styloo - Pretty Face (Perversion) 6:46
06. Cat Gang - Locomotive Breath (Special Cat Version) 8:44
07. Topo & Roby - Under The Ice (Instr.) 5:24
08. Cruisin' Gang - My Man 6:01
09. Memory Control One - Basic 5:09
10. Florio Time D.J. - Time Out 7:02
11. Mr.Master - A Dog In The Night 4:29
12. Peter Richard - Walking In The Neon 9:00

Back

Отчет EAC

Exact Audio Copy V0.99 prebeta 5 from 4. May 2009
Отчёт EAC об извлечении, выполненном 21. июля 2011, 23:02
Various / I Love Italo Disco Legends Vol.2
Дисковод: Optiarc DVD RW AD-5200A Adapter: 0 ID: 0
Режим чтения : Достоверность
Использование точного потока : Да
Отключение кэша аудио : Да
Использование указателей C2 : Нет
Коррекция смещения при чтении : 48
Способность читать области Lead-in и Lead-out : Нет
Заполнение пропущенных сэмплов тишиной : Да
Удаление блоков с тишиной в начале и конце : Нет
При вычислениях CRC использовались нулевые сэмплы : Да
Интерфейс : Встроенный Win32-интерфейс для Win NT/2000
Выходной формат : Внутренние WAV-операции
Формат сэмплов : 44.100 Гц; 16 бит; стерео
TOC извлечённого CD
Трек | Старт | Длительность | Начальный сектор | Конечный сектор
---------------------------------------------------------------------
1 | 0:00.00 | 6:49.29 | 0 | 30703
2 | 6:49.29 | 6:45.03 | 30704 | 61081
3 | 13:34.32 | 6:26.72 | 61082 | 90103
4 | 20:01.29 | 6:21.00 | 90104 | 118678
5 | 26:22.29 | 6:46.12 | 118679 | 149140
6 | 33:08.41 | 8:43.74 | 149141 | 188439
7 | 41:52.40 | 5:23.74 | 188440 | 212738
8 | 47:16.39 | 6:00.39 | 212739 | 239777
9 | 53:17.03 | 5:08.74 | 239778 | 262951
10 | 58:26.02 | 7:02.02 | 262952 | 294603
11 | 65:28.04 | 4:29.00 | 294604 | 314778
12 | 69:57.04 | 9:00.00 | 314779 | 355278
Характеристики диапазона извлечения и сообщения об ошибках
Выбранный диапазон
Имя файла D:\All\Music\Various - I Love Italo Disco Legends Vol.2\Various - I Love Italo Disco Legends Vol.2.wav
Пиковый уровень 100.0 %
Качество диапазона 100.0 %
CRC теста E51B91B4
CRC копии E51B91B4
Копирование... OK
Ошибок не произошло
AccurateRip: сводка
Трек 1 нет в базе данных
Трек 2 нет в базе данных
Трек 3 нет в базе данных
Трек 4 нет в базе данных
Трек 5 нет в базе данных
Трек 6 нет в базе данных
Трек 7 нет в базе данных
Трек 8 нет в базе данных
Трек 9 нет в базе данных
Трек 10 нет в базе данных
Трек 11 нет в базе данных
Трек 12 нет в базе данных
Ни одного трека нет в базе AccurateRip
Конец отчёта
[Торрент-статистика]
[Профиль]  [ЛС] 
Показать сообщения:    
Ответить на тему

Текущее время: Сегодня 23:13

Часовой пояс: GMT + 4



Вы не можете начинать темы
Вы не можете отвечать на сообщения
Вы не можете редактировать свои сообщения
Вы не можете удалять свои сообщения
Вы не можете голосовать в опросах
Вы не можете прикреплять файлы к сообщениям
Вы не можете скачивать файлы