VA - I Love Italo Disco Legends Vol.1 - 2011, (Italo-Disco), FLAC (image+.cue), lossless

Ответить на тему
 
Автор
Сообщение

Admiral ®

Пол:

Стаж: 7 лет 2 месяца

Сообщений: 606

Репутация: 146 [+] [-]

Пост 18-Мар-2014 10:46

[Цитировать] 

--Various Artists - I Love Italo Disco Legends Vol.1 -- Жанр: Italo-Disco
Страна-производитель диска: Spain
Год издания диска: 2011
Издатель (лейбл): Blanco Y Negro
Номер по каталогу: MXCD 2161 C
Аудио кодек: FLAC (*.flac)
Тип рипа: image+.cue
Битрейт аудио: lossless
Продолжительность: 01:19:18
Наличие сканов в содержимом раздачи: да
Трэклист:
01. Pink Project - Amama 5:32
02. Fun Fun - Happy Station (Scratch Remix) 6:49
03. Doctor's Cat - Feel The Drive (Remix) 5:51
04. Time - Shaker Shake (Dub) 5:00
05. Ken Laszlo - Hey Hey Guy (Swedish Mega-Mix) 7:48
06. Max Him - No Escape (Remix) 6:10
07. Kano - Another Life (Instrumental) 5:40
08. Amnesie - Turas 6:55
09. B.W.H. - Livin' Up 4:48
10. Mr.Flagio - Take A Chance (Instrumental) 7:44
11. Los Angeles T.F. - Magical Body 5:10
12. International Music System - Run Away 5:33
13. Koto - Chinese Revenge 6:17

Back

Отчет EAC

Exact Audio Copy V0.99 prebeta 5 from 4. May 2009
Отчёт EAC об извлечении, выполненном 21. июля 2011, 22:16
Various / I Love Italo Disco Legends Vol.1
Дисковод: Optiarc DVD RW AD-5200A Adapter: 0 ID: 0
Режим чтения : Достоверность
Использование точного потока : Да
Отключение кэша аудио : Да
Использование указателей C2 : Нет
Коррекция смещения при чтении : 48
Способность читать области Lead-in и Lead-out : Нет
Заполнение пропущенных сэмплов тишиной : Да
Удаление блоков с тишиной в начале и конце : Нет
При вычислениях CRC использовались нулевые сэмплы : Да
Интерфейс : Встроенный Win32-интерфейс для Win NT/2000
Выходной формат : Внутренние WAV-операции
Формат сэмплов : 44.100 Гц; 16 бит; стерео
TOC извлечённого CD
Трек | Старт | Длительность | Начальный сектор | Конечный сектор
---------------------------------------------------------------------
1 | 0:00.00 | 5:31.62 | 0 | 24886
2 | 5:31.62 | 6:49.31 | 24887 | 55592
3 | 12:21.18 | 5:50.74 | 55593 | 81916
4 | 18:12.17 | 5:00.00 | 81917 | 104416
5 | 23:12.17 | 7:47.74 | 104417 | 139515
6 | 31:00.16 | 6:10.21 | 139516 | 167286
7 | 37:10.37 | 5:40.00 | 167287 | 192786
8 | 42:50.37 | 6:54.74 | 192787 | 223910
9 | 49:45.36 | 4:48.04 | 223911 | 245514
10 | 54:33.40 | 7:43.74 | 245515 | 280313
11 | 62:17.39 | 5:10.23 | 280314 | 303586
12 | 67:27.62 | 5:32.69 | 303587 | 328555
13 | 73:00.56 | 6:17.26 | 328556 | 356856
Характеристики диапазона извлечения и сообщения об ошибках
Выбранный диапазон
Имя файла D:\All\Music\Various - I Love Italo Disco Legends Vol.1\Various - I Love Italo Disco Legends Vol.1.wav
Пиковый уровень 99.4 %
Качество диапазона 100.0 %
CRC теста B5DBE2DF
CRC копии B5DBE2DF
Копирование... OK
Ошибок не произошло
AccurateRip: сводка
Трек 1 нет в базе данных
Трек 2 нет в базе данных
Трек 3 нет в базе данных
Трек 4 нет в базе данных
Трек 5 нет в базе данных
Трек 6 нет в базе данных
Трек 7 нет в базе данных
Трек 8 нет в базе данных
Трек 9 нет в базе данных
Трек 10 нет в базе данных
Трек 11 нет в базе данных
Трек 12 нет в базе данных
Трек 13 нет в базе данных
Ни одного трека нет в базе AccurateRip
Конец отчёта
[Торрент-статистика]
[Профиль]  [ЛС] 
Показать сообщения:    
Ответить на тему

Текущее время: Сегодня 06:28

Часовой пояс: GMT + 4



Вы не можете начинать темы
Вы не можете отвечать на сообщения
Вы не можете редактировать свои сообщения
Вы не можете удалять свои сообщения
Вы не можете голосовать в опросах
Вы не можете прикреплять файлы к сообщениям
Вы не можете скачивать файлы