Grant Miller - Megamix - 2010, (Italo-Disco), FLAC (image+.cue), lossless

Ответить на тему
 
Автор
Сообщение

Admiral ®

Пол:

Стаж: 7 лет 2 месяца

Сообщений: 606

Репутация: 146 [+] [-]

Пост 15-Мар-2014 18:14

[Цитировать] 

--Grant Miller - Megamix-- Жанр: Italo-Disco
Год выпуска диска: 2010
Производитель диска: Hargent Media, Hungary
Аудио кодек: FLAC
Тип рипа: image+.cue
Битрейт аудио: lossless
Продолжительность: 00:31:39
Треклист:

1. Megamix 2010 Radio soft Version 4:38
2. Megamix 2010 Maxi soft Version 9:32
3. Megamix 2010 Radio Bass up Version 4:38
4. Megamix 2010 Bass up Long Version 9:32
5. California Train 2010

Отчёт EAC

Exact Audio Copy V0.99 prebeta 5 from 4. May 2009
EAC extraction logfile from 28. August 2010, 10:52
Grant Miller / Megamix 2010
Used drive : Optiarc DVD RW AD-7240S Adapter: 1 ID: 0
Read mode : Secure
Utilize accurate stream : Yes
Defeat audio cache : Yes
Make use of C2 pointers : No
Read offset correction : 48
Overread into Lead-In and Lead-Out : No
Fill up missing offset samples with silence : Yes
Delete leading and trailing silent blocks : No
Null samples used in CRC calculations : Yes
Used interface : Native Win32 interface for Win NT & 2000
Used output format : User Defined Encoder
Selected bitrate : 128 kBit/s
Quality : High
Add ID3 tag : No
Command line compressor : C:\Program Files (x86)\Exact Audio Copy\Flac\flac.exe
Additional command line options : -8 -V -T "ARTIST=%a" -T "TITLE=%t" -T "ALBUM=%g" -T "DATE=%y" -T "TRACKNUMBER=%n" -T "GENRE=%m" -T "COMMENT=EAC FLAC -8" %s
TOC of the extracted CD
Track | Start | Length | Start sector | End sector
---------------------------------------------------------
1 | 0:00.00 | 4:31.01 | 0 | 20325
2 | 4:31.01 | 9:34.68 | 20326 | 63443
3 | 14:05.69 | 4:31.01 | 63444 | 83769
4 | 18:36.70 | 9:34.68 | 83770 | 126887
5 | 28:11.63 | 3:27.74 | 126888 | 142486
Range status and errors
Selected range
Filename D:\TORRENTS\GRANT MILLER Megamix 2010\Grant Miller - Megamix 2010.wav
Peak level 98.0 %
Range quality 100.0 %
Test CRC 36CC6E2A
Copy CRC 36CC6E2A
Copy OK
No errors occurred
AccurateRip summary
Track 1 not present in database
Track 2 not present in database
Track 3 not present in database
Track 4 not present in database
Track 5 not present in database
None of the tracks are present in the AccurateRip database
End of status report
[Торрент-статистика]
[Профиль]  [ЛС] 
Показать сообщения:    
Ответить на тему

Текущее время: Сегодня 05:37

Часовой пояс: GMT + 4



Вы не можете начинать темы
Вы не можете отвечать на сообщения
Вы не можете редактировать свои сообщения
Вы не можете удалять свои сообщения
Вы не можете голосовать в опросах
Вы не можете прикреплять файлы к сообщениям
Вы не можете скачивать файлы