Joy - Hello - 1997, (Disco), FLAC (image+.cue), lossless

Ответить на тему
 
Автор
Сообщение

Admiral ®

Пол:

Стаж: 7 лет 2 месяца

Сообщений: 606

Репутация: 146 [+] [-]

Пост 14-Мар-2014 14:37

[Цитировать] 

--Joy - Hello - 1986-- Жанр: Disco
Год выпуска диска: 1997
Производитель диска: Made in U.S.A. (Dark Star)
Аудио кодек: FLAC
Тип рипа: image+.cue
Битрейт аудио: lossless
Продолжительность: 00:33:56
Трэклист:

01. Hello [0:04:26.74]
02. Touch By Touch [0:04:01.51]
03. Cheek To Cheek [0:03:59.63]
04. Fire In The Night [0:04:33.18]
05. Valerie [0:04:18.43]
06. Night Of The Night [0:04:43.06]
07. Lost In Hong Kong [0:03:09.68]
08. Darling [0:04:43.39]

Рип сделан с фирменного диска. Все сканы с диска в раздаче присутствуют.

Back:

Отчет EAC:

Exact Audio Copy V0.99 prebeta 4 from 23. January 2008
Отчёт EAC об извлечении, выполненном 13. октября 2008, 0:21
Joy / Hello
Дисковод: _NEC DVD_RW ND-3540A Adapter: 0 ID: 0
Режим чтения : Достоверность
Использование точного потока : Да
Отключение кэша аудио : Да
Использование указателей C2 : Нет
Коррекция смещения при чтении : 48
Способность читать области Lead-in и Lead-out : Нет
Заполнение пропущенных сэмплов тишиной : Да
Удаление блоков с тишиной в начале и конце : Нет
При вычислениях CRC использовались нулевые сэмплы : Нет
Интерфейс : Встроенный Win32-интерфейс для Win NT/2000
Выходной формат : Внутренние WAV-операции
Формат сэмплов : 44.100 Гц; 16 бит; стерео
TOC извлечённого CD
Трек | Старт | Длительность | Начальный сектор | Конечный сектор
---------------------------------------------------------------------
1 | 0:00.00 | 4:26.74 | 0 | 20023
2 | 4:26.74 | 4:01.51 | 20024 | 38149
3 | 8:28.50 | 3:59.63 | 38150 | 56137
4 | 12:28.38 | 4:33.18 | 56138 | 76630
5 | 17:01.56 | 4:18.43 | 76631 | 96023
6 | 21:20.24 | 4:43.06 | 96024 | 117254
7 | 26:03.30 | 3:09.68 | 117255 | 131497
8 | 29:13.23 | 4:43.39 | 131498 | 152761
Характеристики диапазона извлечения и сообщения об ошибках
Выбранный диапазон
Имя файла D:\Temp\Joy - Hello.wav
Пиковый уровень 93.4 %
Качество диапазона 100.0 %
CRC копии C6F58D2B
Копирование... OK
Ошибок не произошло
Конец отчёта
[Торрент-статистика]
[Профиль]  [ЛС] 
Показать сообщения:    
Ответить на тему

Текущее время: Сегодня 05:11

Часовой пояс: GMT + 4



Вы не можете начинать темы
Вы не можете отвечать на сообщения
Вы не можете редактировать свои сообщения
Вы не можете удалять свои сообщения
Вы не можете голосовать в опросах
Вы не можете прикреплять файлы к сообщениям
Вы не можете скачивать файлы