Neoton Familia - Napraforgo (1979), Marathon (1980) - 2002, (Disco) [CD], FLAC (image+.cue), lossless

Ответить на тему
 
Автор
Сообщение

Admiral ®

Пол:

Стаж: 7 лет 2 месяца

Сообщений: 606

Репутация: 146 [+] [-]

Пост 12-Мар-2014 12:12

[Цитировать] 

--Neoton Familia - Napraforgo (1979), Marathon (1980)-- Жанр: Disco
Страна-производитель диска: Россия
Год издания: 2002
Издатель (лейбл): СД-Максимум
Страна: Венгрия
Аудиокодек: FLAC (*.flac)
Тип рипа: image+.cue
Битрейт аудио: lossless
Продолжительность: 01:16:09
Наличие сканов в содержимом раздачи: да
Треклист:

Napraforgo (1979)
01.Ha Szombat Este Tancol
02.Szedult Napraforgo
03.Hegyirablo
04.Ha Varazslolany Lehetnek
05.Forrofeju Lany
06.Santa Maria
07.Szia!
08.Megorulok A Szerelemert
09.Diszkokece
10.Hazafele

Marathon (1980)
01.Don Quijote
02.Egy Huszas Eleg
03.Marathon
04.Korbenjaras
05.Nezz Ra!
06.A Felugyelo
07.Apam Szolt
08.Hova Menjek
09.Nehez Ugy
10.Te Quiero

Отчёт EAC

Exact Audio Copy V1.0 beta 3 from 29. August 2011
Отчёт EAC об извлечении, выполненном 10. марта 2014, 2:04
Neoton Familia / Napraforgo/Marathon
Дисковод: HL-DT-STDVDRAM GT30N Adapter: 0 ID: 1
Режим чтения : Достоверность
Использование точного потока : Да
Отключение кэша аудио : Да
Использование указателей C2 : Нет
Коррекция смещения при чтении : 103
Способность читать области Lead-in и Lead-out : Нет
Заполнение пропущенных сэмплов тишиной : Да
Удаление блоков с тишиной в начале и конце : Нет
При вычислениях CRC использовались нулевые сэмплы : Да
Интерфейс : Встроенный Win32-интерфейс для Win NT/2000
Выходной формат : Пользовательский кодировщик
Выбранный битрейт : 896 kBit/s
Качество : Высокий
Добавление ID3-тега : Нет
Утилита сжатия : C:\Program Files (x86)\Exact Audio Copy\FLAC\FLAC.EXE
Дополнительные параметры : -6 -V -T "ARTIST=%artist%" -T "TITLE=%title%" -T "ALBUM=%albumtitle%" -T "DATE=%year%" -T "TRACKNUMBER=%tracknr%" -T "GENRE=%genre%" -T "COMMENT=%comment%" -T "BAND=%albuminterpret%" -T "ALBUMARTIST=%albuminterpret%" -T "COMPOSER=%composer%" %haslyrics%--tag-from-file=LYRICS="%lyricsfile%"%haslyrics% -T "DISCNUMBER=%cdnumber%" -T "TOTALDISCS=%totalcds%" -T "TOTALTRACKS=%numtracks%" %hascover%--picture="%coverfile%"%hascover% %source% -o %dest%
TOC извлечённого CD
Трек | Старт | Длительность | Начальный сектор | Конечный сектор
---------------------------------------------------------------------
1 | 0:00.00 | 3:26.65 | 0 | 15514
2 | 3:26.65 | 3:25.06 | 15515 | 30895
3 | 6:51.71 | 3:16.12 | 30896 | 45607
4 | 10:08.08 | 4:00.69 | 45608 | 63676
5 | 14:09.02 | 4:34.06 | 63677 | 84232
6 | 18:43.08 | 4:31.01 | 84233 | 104558
7 | 23:14.09 | 3:35.07 | 104559 | 120690
8 | 26:49.16 | 3:35.73 | 120691 | 136888
9 | 30:25.14 | 3:13.73 | 136889 | 151436
10 | 33:39.12 | 3:52.03 | 151437 | 168839
11 | 37:31.15 | 4:03.34 | 168840 | 187098
12 | 41:34.49 | 3:34.51 | 187099 | 203199
13 | 45:09.25 | 5:24.60 | 203200 | 227559
14 | 50:34.10 | 3:42.28 | 227560 | 244237
15 | 54:16.38 | 3:10.56 | 244238 | 258543
16 | 57:27.19 | 4:16.06 | 258544 | 277749
17 | 61:43.25 | 4:18.39 | 277750 | 297138
18 | 66:01.64 | 3:35.24 | 297139 | 313287
19 | 69:37.13 | 3:31.42 | 313288 | 329154
20 | 73:08.55 | 3:54.18 | 329155 | 346722
Характеристики диапазона извлечения и сообщения об ошибках
Выбранный диапазон
Имя файла D:\Закачка\Конвертор\Тест\Neoton Familia - Napraforgo,Marathon.wav
Пиковый уровень 100.0 %
Скорость извлечения 2.2 X
Качество диапазона 100.0 %
CRC теста 286763AA
CRC копии 286763AA
Копирование... OK
Ошибок не произошло
AccurateRip: сводка
Трек 1 : извлечено точно (доверие 3) [4DDF4BDC] (AR v1)
Трек 2 : извлечено точно (доверие 2) [6329D939] (AR v1)
Трек 3 : извлечено точно (доверие 2) [7A05249D] (AR v1)
Трек 4 : извлечено точно (доверие 2) [229CB0B9] (AR v1)
Трек 5 : извлечено точно (доверие 2) [C23270E7] (AR v1)
Трек 6 : извлечено точно (доверие 2) [25D90264] (AR v1)
Трек 7 : извлечено точно (доверие 2) [B3CE1843] (AR v1)
Трек 8 : извлечено точно (доверие 2) [92BBC70C] (AR v1)
Трек 9 : извлечено точно (доверие 2) [BB764E98] (AR v1)
Трек 10 : извлечено точно (доверие 2) [F12828A8] (AR v1)
Трек 11 : извлечено точно (доверие 3) [FA1C29E3] (AR v1)
Трек 12 : извлечено точно (доверие 2) [BE9BF230] (AR v1)
Трек 13 : извлечено точно (доверие 2) [75F74FD9] (AR v1)
Трек 14 : извлечено точно (доверие 2) [5775C5D8] (AR v1)
Трек 15 : извлечено точно (доверие 2) [C06B1629] (AR v1)
Трек 16 : извлечено точно (доверие 2) [0541AF8A] (AR v1)
Трек 17 : извлечено точно (доверие 2) [591F082C] (AR v1)
Трек 18 : извлечено точно (доверие 2) [0AB94257] (AR v1)
Трек 19 : извлечено точно (доверие 2) [3667CED9] (AR v1)
Трек 20 : извлечено точно (доверие 2) [D866D4E9] (AR v1)
Все треки извлечены точно
Конец отчёта
==== Контрольная сумма отчёта 0F7C084D16E82B025DB5E3B7514EB2B7E89E36C1BD2FD56FF497293B71DED4EA ====
[Торрент-статистика]
[Профиль]  [ЛС] 
Показать сообщения:    
Ответить на тему

Текущее время: Сегодня 10:14

Часовой пояс: GMT + 4



Вы не можете начинать темы
Вы не можете отвечать на сообщения
Вы не можете редактировать свои сообщения
Вы не можете удалять свои сообщения
Вы не можете голосовать в опросах
Вы не можете прикреплять файлы к сообщениям
Вы не можете скачивать файлы