Mozzart - Money (The Maxi-Singles Collection) (ESonCD) - 2007, (Italo-Disco), APE (image+.cue), lossless

Ответить на тему
 
Автор
Сообщение

Admiral ®

Пол:

Стаж: 7 лет 2 месяца

Сообщений: 606

Репутация: 146 [+] [-]

Пост 04-Мар-2014 22:30

[Цитировать] 

--Mozzart - Money (The Maxi-Singles Collection)-- Жанр: Italo-Disco
Год выпуска диска: 2007
Производитель диска: Russia (ESonCD - ESCD 200704-2)
Аудио кодек: APE
Тип рипа: image+.cue
Битрейт аудио: lossless
Продолжительность: 00:55:49
Трэклист:
01. Money (Maxi Version) 5:52
02. Jasmin China Girl (Maxi Version) 6:30
03. Devil's Rendezvous 7:03
04. Malice & Vice 5:23
05. Money (Ian's Radio Remix) 3:36
06. In China (Instrumental) 6:09
07. Pay The Highest Price 5:12
08. Jasmin China Girl (Radio Version) 2:53
09. Money (Radio Version) 3:40
10. Megamix 9:26

- 10.1. Money (Remix)
- 10.2. Malice & Vice
- 10.3. Devil's Rendezvous
- 10.4. Jasmin China Girl
- 10.5. In China

Back

Отчет EAC

Exact Audio Copy V0.99 prebeta 5 from 4. May 2009
Отчёт EAC об извлечении, выполненном 5. сентября 2009, 7:58
Mozzart / Money (The Maxi-Singles Collection)
Дисковод: Optiarc DVD RW AD-5200A Adapter: 0 ID: 0
Режим чтения : Достоверность
Использование точного потока : Да
Отключение кэша аудио : Да
Использование указателей C2 : Нет
Коррекция смещения при чтении : 48
Способность читать области Lead-in и Lead-out : Нет
Заполнение пропущенных сэмплов тишиной : Да
Удаление блоков с тишиной в начале и конце : Нет
При вычислениях CRC использовались нулевые сэмплы : Да
Интерфейс : Установленный внешний ASPI-интерфейс
Выходной формат : Внутренние WAV-операции
Формат сэмплов : 44.100 Гц; 16 бит; стерео
TOC извлечённого CD
Трек | Старт | Длительность | Начальный сектор | Конечный сектор
---------------------------------------------------------------------
1 | 0:00.00 | 5:52.74 | 0 | 26473
2 | 5:52.74 | 6:30.12 | 26474 | 55735
3 | 12:23.11 | 7:03.69 | 55736 | 87529
4 | 19:27.05 | 5:23.59 | 87530 | 111813
5 | 24:50.64 | 3:36.55 | 111814 | 128068
6 | 28:27.44 | 6:09.22 | 128069 | 155765
7 | 34:36.66 | 5:12.35 | 155766 | 179200
8 | 39:49.26 | 2:53.38 | 179201 | 192213
9 | 42:42.64 | 3:40.55 | 192214 | 208768
10 | 46:23.44 | 9:26.38 | 208769 | 251256
Характеристики диапазона извлечения и сообщения об ошибках
Выбранный диапазон
Имя файла E:\Mozzart - Money (The Maxi-Singles Collection)\Mozzart - Money (The Maxi-Singles Collection).wav
Пиковый уровень 100.0 %
Качество диапазона 100.0 %
CRC теста AF8B85D7
CRC копии AF8B85D7
Копирование... OK
Ошибок не произошло
AccurateRip: сводка
Трек 1 нет в базе данных
Трек 2 нет в базе данных
Трек 3 нет в базе данных
Трек 4 нет в базе данных
Трек 5 нет в базе данных
Трек 6 нет в базе данных
Трек 7 нет в базе данных
Трек 8 нет в базе данных
Трек 9 нет в базе данных
Трек 10 нет в базе данных
Ни одного трека нет в базе AccurateRip
Конец отчёта
[Торрент-статистика]
[Профиль]  [ЛС] 
Показать сообщения:    
Ответить на тему

Текущее время: Сегодня 05:45

Часовой пояс: GMT + 4



Вы не можете начинать темы
Вы не можете отвечать на сообщения
Вы не можете редактировать свои сообщения
Вы не можете удалять свои сообщения
Вы не можете голосовать в опросах
Вы не можете прикреплять файлы к сообщениям
Вы не можете скачивать файлы