Mike Mareen - Dance Control - 1986, (Italo-Disco), FLAC (image+.cue), lossless

Ответить на тему
 
Автор
Сообщение

Admiral ®

Пол:

Стаж: 7 лет 2 месяца

Сообщений: 606

Репутация: 146 [+] [-]

Пост 04-Мар-2014 12:30

[Цитировать] 

--Mike Mareen - Dance Control-- Жанр: Italo-Disco
Год выпуска диска: 1986
Производитель диска: Germany - ZYX-Galaxis
Аудио кодек: FLAC
Тип рипа: image+.cue
Битрейт аудио: lossless
Продолжительность: 1:05:49
Трэклист:
01. Love Spy (Salutation-Mix) 8:40
02. Here I Am (Megatrain-Mix) 7:30
03. Peace To Mankind 4:44
04. Days I Remember 4:51
05. Midnight Runners 3:37
06. Agent Of Liberty 8:54
07. Dancing In The Dark (Galactica Re-Mix) 7:10
08. Double Trouble (Zeppelin Re-Mix) 6:37
09. Cecilia 4:09
10. Walkin' Highway 4:44
11. Back To Happy Days 4:53

Information

Back

Отчёт EAC

Exact Audio Copy V0.99 prebeta 5 from 4. May 2009
Отчёт EAC об извлечении, выполненном 7. ноября 2009, 3:31
Mike Mareen / Dance Control
Дисковод: PIONEER DVD-RW DVR-107D Adapter: 3 ID: 0
Режим чтения : Достоверность
Использование точного потока : Да
Отключение кэша аудио : Да
Использование указателей C2 : Нет
Коррекция смещения при чтении : 48
Способность читать области Lead-in и Lead-out : Нет
Заполнение пропущенных сэмплов тишиной : Да
Удаление блоков с тишиной в начале и конце : Нет
При вычислениях CRC использовались нулевые сэмплы : Да
Интерфейс : Установленный внешний ASPI-интерфейс
Выходной формат : Внутренние WAV-операции
Формат сэмплов : 44.100 Гц; 16 бит; стерео
TOC извлечённого CD
Трек | Старт | Длительность | Начальный сектор | Конечный сектор
---------------------------------------------------------------------
1 | 0:00.00 | 8:40.30 | 0 | 39029
2 | 8:40.30 | 7:29.58 | 39030 | 72762
3 | 16:10.13 | 4:44.20 | 72763 | 94082
4 | 20:54.33 | 4:50.57 | 94083 | 115889
5 | 25:45.15 | 3:36.70 | 115890 | 132159
6 | 29:22.10 | 8:54.35 | 132160 | 172244
7 | 38:16.45 | 7:09.53 | 172245 | 204472
8 | 45:26.23 | 6:37.10 | 204473 | 234257
9 | 52:03.33 | 4:08.52 | 234258 | 252909
10 | 56:12.10 | 4:44.33 | 252910 | 274242
11 | 60:56.43 | 4:52.47 | 274243 | 296189
Характеристики диапазона извлечения и сообщения об ошибках
Выбранный диапазон
Имя файла I:\Mike Mareen - Dance Control (ZYX-Galaxis)\Mike Mareen - Dance Control.wav
Пиковый уровень 100.0 %
Качество диапазона 100.0 %
CRC теста 0B5E1954
CRC копии 0B5E1954
Копирование... OK
Ошибок не произошло
AccurateRip: сводка
Трек 1 нет в базе данных
Трек 2 нет в базе данных
Трек 3 точное извлечение (доверие 2) [90F8D6BC]
Трек 4 точное извлечение (доверие 1) [4A467AA7]
Трек 5 нет в базе данных
Трек 6 нет в базе данных
Трек 7 нет в базе данных
Трек 8 нет в базе данных
Трек 9 нет в базе данных
Трек 10 нет в базе данных
Трек 11 точность не определена (достоверность 1) [28911D29], AccurateRip вернул [B581BDCF]
2 трек(и) скопированы точно
1 трек(и) не удалось проверить на точность
8 трек(и) не содержатся в базе AccurateRip
Некоторые треки не прошли проверку на точность
Конец отчёта
[Торрент-статистика]
[Профиль]  [ЛС] 
Показать сообщения:    
Ответить на тему

Текущее время: Сегодня 02:54

Часовой пояс: GMT + 4



Вы не можете начинать темы
Вы не можете отвечать на сообщения
Вы не можете редактировать свои сообщения
Вы не можете удалять свои сообщения
Вы не можете голосовать в опросах
Вы не можете прикреплять файлы к сообщениям
Вы не можете скачивать файлы