Mike Mareen - Dance Control (ESonCD) - 2006, (Italo-Disco), APE (image+.cue), lossless

Ответить на тему
 
Автор
Сообщение

Admiral ®

Пол:

Стаж: 7 лет 2 месяца

Сообщений: 606

Репутация: 146 [+] [-]

Пост 04-Мар-2014 12:15

[Цитировать] 

--Mike Mareen - Dance Control-- Жанр: Italo-Disco
Год выпуска диска: 2006
Производитель диска: Russia (ESonCD - ESCD 20064-2)
Аудио кодек: APE
Тип рипа: image+.cue
Битрейт аудио: lossless
Продолжительность: 00:45:46
Трэклист:
01. Here I Am 5:12
02. Cecilia (Remix) 6:47
03. Double Trouble 5:20
04. Peace To Mankind 4:30
05. Dancin' In The Dark 5:34
06. Midnight Runners 3:41
07. Back To Happy Days 4:51
08. Walkin' Highway 301 4:40
09. Days I Remember 4:42

Information

Back

Отчёт EAC

Exact Audio Copy V0.99 prebeta 5 from 4. May 2009
Отчёт EAC об извлечении, выполненном 5. сентября 2009, 11:32
Mike Mareen / LP Dance Control
Дисковод: Optiarc DVD RW AD-5200A Adapter: 0 ID: 0
Режим чтения : Достоверность
Использование точного потока : Да
Отключение кэша аудио : Да
Использование указателей C2 : Нет
Коррекция смещения при чтении : 48
Способность читать области Lead-in и Lead-out : Нет
Заполнение пропущенных сэмплов тишиной : Да
Удаление блоков с тишиной в начале и конце : Нет
При вычислениях CRC использовались нулевые сэмплы : Да
Интерфейс : Установленный внешний ASPI-интерфейс
Выходной формат : Внутренние WAV-операции
Формат сэмплов : 44.100 Гц; 16 бит; стерео
TOC извлечённого CD
Трек | Старт | Длительность | Начальный сектор | Конечный сектор
---------------------------------------------------------------------
1 | 0:00.00 | 5:08.56 | 0 | 23155
2 | 5:08.56 | 6:49.54 | 23156 | 53884
3 | 11:58.35 | 5:23.62 | 53885 | 78171
4 | 17:22.22 | 4:43.39 | 78172 | 99435
5 | 22:05.61 | 5:37.49 | 99436 | 124759
6 | 27:43.35 | 3:39.02 | 124760 | 141186
7 | 31:22.37 | 4:53.63 | 141187 | 163224
8 | 36:16.25 | 4:42.24 | 163225 | 184398
9 | 40:58.49 | 4:48.51 | 184399 | 206049
Характеристики диапазона извлечения и сообщения об ошибках
Выбранный диапазон
Имя файла E:\Mike Mareen - LP Dance Control\Mike Mareen - LP Dance Control.wav
Пиковый уровень 99.5 %
Качество диапазона 100.0 %
CRC теста AECF3759
CRC копии AECF3759
Копирование... OK
Ошибок не произошло
AccurateRip: сводка
Трек 1 нет в базе данных
Трек 2 нет в базе данных
Трек 3 нет в базе данных
Трек 4 нет в базе данных
Трек 5 нет в базе данных
Трек 6 нет в базе данных
Трек 7 нет в базе данных
Трек 8 нет в базе данных
Трек 9 нет в базе данных
Ни одного трека нет в базе AccurateRip
Конец отчёта
[Торрент-статистика]
[Профиль]  [ЛС] 

Andrey110682

Пол:

Стаж: 9 лет

Сообщений: 216

Репутация: 176 [+] [-]

Пост 04-Мар-2014 16:02 (спустя 3 часа)

[Цитировать] 

Admiral, с позеленением вас!!! bs

_________________

[Торрент-статистика]
[Профиль]  [ЛС] 
Показать сообщения:    
Ответить на тему

Текущее время: Сегодня 03:04

Часовой пояс: GMT + 4



Вы не можете начинать темы
Вы не можете отвечать на сообщения
Вы не можете редактировать свои сообщения
Вы не можете удалять свои сообщения
Вы не можете голосовать в опросах
Вы не можете прикреплять файлы к сообщениям
Вы не можете скачивать файлы