Ricchi & Poveri - Voulez Vous Danser ©1989, (Electronic, Italo-pop), FLAC (image+.cue), lossless

Ответить на тему
 
Автор
Сообщение

Admiral ®

Пол:

Стаж: 7 лет 2 месяца

Сообщений: 606

Репутация: 146 [+] [-]

Пост 03-Мар-2014 19:35

[Цитировать] 

--Ricchi & Poveri - Voulez Vous Danser
RARE CD!
-- Жанр: Electronic, Italo-pop
Страна-производитель CD: France by MPO
Страна-производитель: Italy
Год издания LP: 1983
Год издания диска: 1989
Издатель (лейбл): CGD
Номер по каталогу: CDLSM 100068
Страна исполнителей: Italy
Аудиокодек: FLAC (*.flac)
Тип рипа: image+.cue
Битрейт аудио: lossless
Продолжительность: 00:35:00
Наличие сканов в содержимом раздачи: да
Треклист:


1 Voulez Vous Danser 3:45
2 Hasta La Vista 3:57
3 Acapulco 3:44
4 Sei La Sola Che Amo 3:04
5 Dan Dan (E Una Canzone D'Amore) 3:16
6 Cosa Sei 3:48
7 Ciao Italy, Ciao Amore 3:00
8 E Io Mi Sono Innamorato 3:32
9 Un Altro Lui Un'Altra Lei 2:55
10 Vento Caldo 3:35

-----------------------------------------------------
Arranged: Gian Piero Reverberi
Artwork: E.Munari, E.Mombrini
Bass: Davide Romani, Günther Gebauer
Drums: Curt Cress, Lele Melotti
Guitar: Mats Björklund, Paolo Gianolio
Keyboards: Fio Zanotti, Geoff Bastow
Percussion: Curt Cress, Lele Melotti
Photography: Alberto Facchi
Producer: Dario Farina
Recorded, Vocals & Background Vocals: Cedric Beatty, Massimo Noè, Michael Högel
Recorded, Mixed: Cedric Beatty

Отчёт EAC

Exact Audio Copy V0.99 prebeta 5 from 4. May 2009
Отчёт EAC об извлечении, выполненном 31. июля 2011, 16:02
Ricchi E Poveri / Voulez Vous Danser
Дисковод: PLEXTOR CD-R PREMIUM2 Adapter: 0 ID: 0
Режим чтения : Достоверность
Использование точного потока : Да
Отключение кэша аудио : Да
Использование указателей C2 : Нет
Коррекция смещения при чтении : 30
Способность читать области Lead-in и Lead-out : Нет
Заполнение пропущенных сэмплов тишиной : Да
Удаление блоков с тишиной в начале и конце : Нет
При вычислениях CRC использовались нулевые сэмплы : Да
Интерфейс : Встроенный Win32-интерфейс для Win NT/2000
Выходной формат : Внутренние WAV-операции
Формат сэмплов : 44.100 Гц; 16 бит; стерео
TOC извлечённого CD
Трек | Старт | Длительность | Начальный сектор | Конечный сектор
---------------------------------------------------------------------
1 | 0:00.33 | 3:48.07 | 33 | 17139
2 | 3:48.40 | 3:58.43 | 17140 | 35032
3 | 7:47.08 | 3:45.60 | 35033 | 51967
4 | 11:32.68 | 3:05.22 | 51968 | 65864
5 | 14:38.15 | 3:19.48 | 65865 | 80837
6 | 17:57.63 | 3:50.62 | 80838 | 98149
7 | 21:48.50 | 3:02.13 | 98150 | 111812
8 | 24:50.63 | 3:33.45 | 111813 | 127832
9 | 28:24.33 | 2:56.67 | 127833 | 141099
10 | 31:21.25 | 3:39.08 | 141100 | 157532
Характеристики диапазона извлечения и сообщения об ошибках
Выбранный диапазон
Имя файла C:\Ricchi & Poveri - Voulez Vous Danser (CDLSM 100068)\Ricchi E Poveri - Voulez Vous Danser.wav
Пиковый уровень 65.7 %
Качество диапазона 100.0 %
CRC теста 4F49A099
CRC копии 4F49A099
Копирование... OK
Ошибок не произошло
AccurateRip: сводка
Трек 1 точность не определена (достоверность 1) [E7DD9311], AccurateRip вернул [1B47F345]
Трек 2 точность не определена (достоверность 1) [81D6E9D6], AccurateRip вернул [A820579D]
Трек 3 точность не определена (достоверность 1) [C188EDA1], AccurateRip вернул [94F2002F]
Трек 4 точность не определена (достоверность 1) [1EF6A3CA], AccurateRip вернул [E70616AB]
Трек 5 точность не определена (достоверность 1) [4B1DF80F], AccurateRip вернул [BF9C292E]
Трек 6 точность не определена (достоверность 1) [328B64D7], AccurateRip вернул [1235634D]
Трек 7 точность не определена (достоверность 1) [5EEDD765], AccurateRip вернул [36C160D5]
Трек 8 точность не определена (достоверность 1) [3638A955], AccurateRip вернул [525CB494]
Трек 9 точность не определена (достоверность 1) [135B9D38], AccurateRip вернул [C0374F92]
Трек 10 точность не определена (достоверность 1) [49B5DB90], AccurateRip вернул [4FAEC1A1]
Ни один трек не прошёл проверки на точность
В вашей базе может быть иной вариант штамповки диска
Конец отчёта

[Торрент-статистика]
[Профиль]  [ЛС] 
Показать сообщения:    
Ответить на тему

Текущее время: Сегодня 06:36

Часовой пояс: GMT + 4



Вы не можете начинать темы
Вы не можете отвечать на сообщения
Вы не можете редактировать свои сообщения
Вы не можете удалять свои сообщения
Вы не можете голосовать в опросах
Вы не можете прикреплять файлы к сообщениям
Вы не можете скачивать файлы