Ricchi e Poveri - Pubblicita - 1987, (Italo-Disco, Synth-pop), FLAC (image+.cue), lossless

Ответить на тему
 
Автор
Сообщение

Admiral ®

Пол:

Стаж: 7 лет 2 месяца

Сообщений: 606

Репутация: 146 [+] [-]

Пост 03-Мар-2014 19:27

[Цитировать] 

--Ricchi e Poveri - Pubblicita-- Жанр: Italo-Disco, Synth-pop
Страна-производитель диска: Germany
Год издания диска: 1987
Издатель (лейбл): Baby Records
Номер по каталогу: 258 453-222
Страна: Italy
Аудиокодек: FLAC (*.flac)
Тип рипа: image+.cue
Битрейт аудио: lossless
Продолжительность: 00:35:56
Наличие сканов в содержимом раздачи: да
Треклист:

1. Cocco Bello Africa 3:15
2. Pubblicità 3:16
3. Voglio Stringerti Ancora 4:11
4. Non Dire No 3:38
5. C'E' Che Luna, C'E' Che Mare 3:29
6. Lascia Libero Il Cielo 4:12 Arranged By – Angelo Sotgiu, Mario Natale
7. New York 3:21
8. Bocce 3:04
9. E Io Mi Sono Innamorato 3:07
10. Canzone D' Amore 4:03 Arranged By – Pinuccio Pirazzoli Producer – Toto Cutugno

Arranged By – Vince Tempera*
Mixed By – Andrea Celesia, Franco Zorzi
Producer – Dario Farina

Отчёт EAC

Exact Audio Copy V0.99 prebeta 5 from 4. May 2009
Отчёт EAC об извлечении, выполненном 6. августа 2011, 15:10
Ricchi e Poveri / Pubblicita
Дисковод: PLEXTOR CD-R PREMIUM2 Adapter: 0 ID: 0
Режим чтения : Достоверность
Использование точного потока : Да
Отключение кэша аудио : Да
Использование указателей C2 : Нет
Коррекция смещения при чтении : 30
Способность читать области Lead-in и Lead-out : Нет
Заполнение пропущенных сэмплов тишиной : Да
Удаление блоков с тишиной в начале и конце : Нет
При вычислениях CRC использовались нулевые сэмплы : Да
Интерфейс : Встроенный Win32-интерфейс для Win NT/2000
Выходной формат : Внутренние WAV-операции
Формат сэмплов : 44.100 Гц; 16 бит; стерео
TOC извлечённого CD
Трек | Старт | Длительность | Начальный сектор | Конечный сектор
---------------------------------------------------------------------
1 | 0:00.00 | 3:15.00 | 0 | 14624
2 | 3:15.00 | 3:15.40 | 14625 | 29289
3 | 6:30.40 | 4:11.30 | 29290 | 48144
4 | 10:41.70 | 3:38.10 | 48145 | 64504
5 | 14:20.05 | 3:28.50 | 64505 | 80154
6 | 17:48.55 | 4:11.40 | 80155 | 99019
7 | 22:00.20 | 3:21.12 | 99020 | 114106
8 | 25:21.32 | 3:04.28 | 114107 | 127934
9 | 28:25.60 | 3:07.07 | 127935 | 141966
10 | 31:32.67 | 4:03.33 | 141967 | 160224
Характеристики диапазона извлечения и сообщения об ошибках
Выбранный диапазон
Имя файла C:\Ricchi e Poveri - Pubblicita.wav
Пиковый уровень 97.7 %
Качество диапазона 100.0 %
CRC теста 5C4DD0D9
CRC копии 5C4DD0D9
Копирование... OK
Ошибок не произошло
AccurateRip: сводка
Трек 1 точное извлечение (доверие 1) [F7C63769]
Трек 2 точное извлечение (доверие 1) [658567E3]
Трек 3 точное извлечение (доверие 1) [6CA237B3]
Трек 4 точное извлечение (доверие 1) [C153E403]
Трек 5 точное извлечение (доверие 1) [8DEBEF57]
Трек 6 точное извлечение (доверие 1) [B7991E72]
Трек 7 точное извлечение (доверие 1) [BEFB153E]
Трек 8 точное извлечение (доверие 1) [0DE53810]
Трек 9 точное извлечение (доверие 1) [BFCA6731]
Трек 10 точное извлечение (доверие 1) [1549107F]
Все треки извлечены точно
Конец отчёта
[Торрент-статистика]
[Профиль]  [ЛС] 
Показать сообщения:    
Ответить на тему

Текущее время: Сегодня 05:33

Часовой пояс: GMT + 4



Вы не можете начинать темы
Вы не можете отвечать на сообщения
Вы не можете редактировать свои сообщения
Вы не можете удалять свои сообщения
Вы не можете голосовать в опросах
Вы не можете прикреплять файлы к сообщениям
Вы не можете скачивать файлы