Ricchi e Poveri – Dimmi Quando - 1985, (Italo-Disco, Synth-pop), FLAC (image+.cue), lossless

Ответить на тему
 
Автор
Сообщение

Admiral ®

Пол:

Стаж: 7 лет 2 месяца

Сообщений: 606

Репутация: 146 [+] [-]

Пост 03-Мар-2014 19:25

[Цитировать] 

--Ricchi e Poveri – Dimmi Quando-- Жанр: Italo-Disco, Synth-pop
Страна-производитель диска: West Germany
Год издания диска: 1985
Издатель (лейбл): Baby Records
Номер по каталогу: 257 624-222
Страна: Italy
Аудиокодек: FLAC (*.flac)
Тип рипа: image+.cue
Битрейт аудио: lossless
Продолжительность: 00:42:41
Наличие сканов в содержимом раздачи: да

Треклист:
1. Dimmi Quando 3:33
2. Buonanotte Fiorellino 3:05
3. L' Anno Che Verra 4:06
4. Scende La Pioggia 3:49
5. Come Vorrei 2:59
6. Se M' Innamoro 3:30
7. Samarcanda 3:24
8. La Luce Dell' Est 4:08
9. Azzurro 3:27
10. Casa Mia 3:34
11. Cosa Sei 3:21
12. Mami Mami 3:44

Arranged By – Fio Zanotti
Mixed By – Franco Zorzi, Ju (3)
Producer – Dario Farina (tracks: 6, 12), Michael Hofmann (tracks: 6, 12), Vam
Recorded at Moon Studios.
(c)+(p) 1985 Baby Records - via Timavo, 34.

Отчёт EAC

Exact Audio Copy V0.99 prebeta 5 from 4. May 2009
Отчёт EAC об извлечении, выполненном 04. августа 2011, 18:38
Ricchi e Poveri / Dimmi Quando
Дисковод: PLEXTOR CD-R PREMIUM2 Adapter: 0 ID: 0
Режим чтения : Достоверность
Использование точного потока : Да
Отключение кэша аудио : Да
Использование указателей C2 : Нет
Коррекция смещения при чтении : 30
Способность читать области Lead-in и Lead-out : Нет
Заполнение пропущенных сэмплов тишиной : Да
Удаление блоков с тишиной в начале и конце : Нет
При вычислениях CRC использовались нулевые сэмплы : Да
Интерфейс : Встроенный Win32-интерфейс для Win NT/2000
Выходной формат : Внутренние WAV-операции
Формат сэмплов : 44.100 Гц; 16 бит; стерео
TOC извлечённого CD
Трек | Старт | Длительность | Начальный сектор | Конечный сектор
---------------------------------------------------------------------
1 | 0:00.33 | 3:33.17 | 33 | 16024
2 | 3:33.50 | 3:04.68 | 16025 | 29892
3 | 6:38.43 | 4:05.72 | 29893 | 48339
4 | 10:44.40 | 3:49.18 | 48340 | 65532
5 | 14:33.58 | 2:58.50 | 65533 | 78932
6 | 17:32.33 | 3:30.10 | 78933 | 94692
7 | 21:02.43 | 3:24.10 | 94693 | 110002
8 | 24:26.53 | 4:08.00 | 110003 | 128602
9 | 28:34.53 | 3:26.65 | 128603 | 144117
10 | 32:01.43 | 3:33.70 | 144118 | 160162
11 | 35:35.38 | 3:21.20 | 160163 | 175257
12 | 38:56.58 | 3:44.50 | 175258 | 192107
Характеристики диапазона извлечения и сообщения об ошибках
Выбранный диапазон
Имя файла C:\Ricchi E Poveri - Dimmi Quando.wav
Пиковый уровень 93.3 %
Качество диапазона 100.0 %
CRC теста DF7B839D
CRC копии DF7B839D
Копирование... OK
Ошибок не произошло
AccurateRip: сводка
Трек 1 нет в базе данных
Трек 2 нет в базе данных
Трек 3 нет в базе данных
Трек 4 нет в базе данных
Трек 5 нет в базе данных
Трек 6 нет в базе данных
Трек 7 нет в базе данных
Трек 8 нет в базе данных
Трек 9 нет в базе данных
Трек 10 нет в базе данных
Трек 11 нет в базе данных
Трек 12 нет в базе данных
Ни одного трека нет в базе AccurateRip
Конец отчёта
[Торрент-статистика]
[Профиль]  [ЛС] 
Показать сообщения:    
Ответить на тему

Текущее время: Сегодня 06:46

Часовой пояс: GMT + 4



Вы не можете начинать темы
Вы не можете отвечать на сообщения
Вы не можете редактировать свои сообщения
Вы не можете удалять свои сообщения
Вы не можете голосовать в опросах
Вы не можете прикреплять файлы к сообщениям
Вы не можете скачивать файлы