Eruption – I Can't Stand The Rain - 1995, (Disco, Soul), FLAC (image+.cue), lossless

Ответить на тему
 
Автор
Сообщение

Admiral ®

Пол:

Стаж: 7 лет 2 месяца

Сообщений: 606

Репутация: 146 [+] [-]

Пост 03-Мар-2014 19:07

[Цитировать] 

--Eruption – I Can't Stand The Rain-- Жанр: Disco, Soul
Страна-производитель диска: Germany
Год издания диска: 1995
Издатель (лейбл): BMG Ariola Miller GmbH, Ariola Express
Номер по каталогу: 74321 24930 2
Страна: Germany
Аудиокодек: FLAC (*.flac)
Тип рипа: image+.cue
Битрейт аудио: lossless
Продолжительность: 00:58:56
Наличие сканов в содержимом раздачи: да
Треклист:

1. I Can't Stand The Rain 3:12
2. Runaway 4:24
3. Go Johnnie Go 3:52
4. We Gotta Talk About It 3:43
5. Leave A Light 3:15
6. Good Good Feelin' 3:28
7. One Way Ticket 3:35
8. Be Yourself 3:43
9. Party, Party - Remix '94 2:29
10. Stand Up And Sing Hallelujah 3:18
11. It's Alright 3:55
12. Hey There Lonely Girl 3:20
13. Computer Love 4:35
14. Left Me In The Rain 3:56
15. Fire Is Gone 4:02
16. Come Back To Me 3:49

Отчёт EAC

Exact Audio Copy V0.99 prebeta 5 from 4. May 2009
Отчёт EAC об извлечении, выполненном 03. августа 2011, 16:18
Eruption / I Can't Stand The Rain
Дисковод: PLEXTOR CD-R PREMIUM2 Adapter: 0 ID: 0
Режим чтения : Достоверность
Использование точного потока : Да
Отключение кэша аудио : Да
Использование указателей C2 : Нет
Коррекция смещения при чтении : 30
Способность читать области Lead-in и Lead-out : Нет
Заполнение пропущенных сэмплов тишиной : Да
Удаление блоков с тишиной в начале и конце : Нет
При вычислениях CRC использовались нулевые сэмплы : Да
Интерфейс : Встроенный Win32-интерфейс для Win NT/2000
Выходной формат : Внутренние WAV-операции
Формат сэмплов : 44.100 Гц; 16 бит; стерео
TOC извлечённого CD
Трек | Старт | Длительность | Начальный сектор | Конечный сектор
---------------------------------------------------------------------
1 | 0:00.32 | 3:10.13 | 32 | 14294
2 | 3:10.45 | 4:26.50 | 14295 | 34294
3 | 7:37.20 | 3:55.05 | 34295 | 51924
4 | 11:32.25 | 3:44.70 | 51925 | 68794
5 | 15:17.20 | 3:17.25 | 68795 | 83594
6 | 18:34.45 | 3:29.47 | 83595 | 99316
7 | 22:04.17 | 3:36.38 | 99317 | 115554
8 | 25:40.55 | 3:43.30 | 115555 | 132309
9 | 29:24.10 | 2:31.27 | 132310 | 143661
10 | 31:55.37 | 3:20.70 | 143662 | 158731
11 | 35:16.32 | 3:56.28 | 158732 | 176459
12 | 39:12.60 | 3:23.52 | 176460 | 191736
13 | 42:36.37 | 4:35.60 | 191737 | 212421
14 | 47:12.22 | 3:55.45 | 212422 | 230091
15 | 51:07.67 | 3:57.65 | 230092 | 247931
16 | 55:05.57 | 3:50.50 | 247932 | 265231
Характеристики диапазона извлечения и сообщения об ошибках
Выбранный диапазон
Имя файла C:\Eruption - I Can't Stand The Rain.wav
Пиковый уровень 100.0 %
Качество диапазона 100.0 %
CRC теста 76A717A5
CRC копии 76A717A5
Копирование... OK
Ошибок не произошло
AccurateRip: сводка
Трек 1 нет в базе данных
Трек 2 нет в базе данных
Трек 3 нет в базе данных
Трек 4 нет в базе данных
Трек 5 нет в базе данных
Трек 6 нет в базе данных
Трек 7 нет в базе данных
Трек 8 нет в базе данных
Трек 9 нет в базе данных
Трек 10 нет в базе данных
Трек 11 нет в базе данных
Трек 12 нет в базе данных
Трек 13 нет в базе данных
Трек 14 нет в базе данных
Трек 15 нет в базе данных
Трек 16 нет в базе данных
Ни одного трека нет в базе AccurateRip
Конец отчёта
[Торрент-статистика]
[Профиль]  [ЛС] 
Показать сообщения:    
Ответить на тему

Текущее время: Сегодня 19:09

Часовой пояс: GMT + 4



Вы не можете начинать темы
Вы не можете отвечать на сообщения
Вы не можете редактировать свои сообщения
Вы не можете удалять свои сообщения
Вы не можете голосовать в опросах
Вы не можете прикреплять файлы к сообщениям
Вы не можете скачивать файлы