Radiorama - The Original Definitive Collection (I Love Disco Presents - Masters Collection) - 2007, (Italo-Disco/Euro-Beat), APE (image+.cue), lossless

Ответить на тему
 
Автор
Сообщение

Admiral ®

Пол:

Стаж: 7 лет 2 месяца

Сообщений: 606

Репутация: 146 [+] [-]

Пост 01-Мар-2014 18:57

[Цитировать] 

--Radiorama - The Original Definitive Collection (I Love Disco Presents - Masters Collection)-- Жанр: Italo-Disco/Euro-Beat
Год выпуска диска: 2007
Производитель диска: Spain - Blanco Y Negro
Аудио кодек: APE
Тип рипа: image+.cue
Битрейт аудио: lossless
Продолжительность: 01:19:00
Трэклист:
01. Chance To Desire 7:53
02. Vampires 6:12
03. Yeti 5:46
04. Aliens 5:45
05. Woman 4:53
06. Warrior 4:15
07. So I Know 5:57
08. Fire (Fire Mix) 5:56
09. Hey Hey 5:54
10. Desire (Remix) 5:56
11. Love Of My Life 4:50
12. Multimix Radiorama 11:16
13. Vampires (Bonus Version) 4:24

Back

Отчёт EAC

Exact Audio Copy V0.99 prebeta 4 from 23. January 2008
Отчёт EAC об извлечении, выполненном 26. июля 2009, 20:49
Radiorama / The Original Definitive Collection
Дисковод: Optiarc DVD RW AD-5200A Adapter: 0 ID: 0
Режим чтения : Достоверность
Использование точного потока : Да
Отключение кэша аудио : Да
Использование указателей C2 : Нет
Коррекция смещения при чтении : 48
Способность читать области Lead-in и Lead-out : Нет
Заполнение пропущенных сэмплов тишиной : Да
Удаление блоков с тишиной в начале и конце : Нет
При вычислениях CRC использовались нулевые сэмплы : Да
Интерфейс : Установленный внешний ASPI-интерфейс
Выходной формат : Внутренние WAV-операции
Формат сэмплов : 44.100 Гц; 16 бит; стерео
TOC извлечённого CD
Трек | Старт | Длительность | Начальный сектор | Конечный сектор
---------------------------------------------------------------------
1 | 0:00.00 | 7:53.60 | 0 | 35534
2 | 7:53.60 | 6:12.04 | 35535 | 63438
3 | 14:05.64 | 5:46.64 | 63439 | 89452
4 | 19:52.53 | 5:45.14 | 89453 | 115341
5 | 25:37.67 | 4:53.38 | 115342 | 137354
6 | 30:31.30 | 4:15.15 | 137355 | 156494
7 | 34:46.45 | 5:57.42 | 156495 | 183311
8 | 40:44.12 | 5:56.32 | 183312 | 210043
9 | 46:40.44 | 5:54.74 | 210044 | 236667
10 | 52:35.43 | 5:56.42 | 236668 | 263409
11 | 58:32.10 | 4:50.66 | 263410 | 285225
12 | 63:23.01 | 11:16.67 | 285226 | 335992
13 | 74:39.68 | 4:21.46 | 335993 | 355613
Характеристики диапазона извлечения и сообщения об ошибках
Выбранный диапазон
Имя файла E:\000 I Love Disco Presents - Masters Collection\I Love Disco Presents - Masters Collection\03 Radiorama - The Original Definitive Collection\Radiorama - The Original Definitive Collection.wav
Пиковый уровень 100.0 %
Качество диапазона 100.0 %
CRC теста E80715BC
CRC копии E80715BC
Копирование... OK
Ошибок не произошло
AccurateRip: сводка
Трек 1 точное извлечение (доверие 1) [22911A38]
Трек 2 точное извлечение (доверие 1) [933448F0]
Трек 3 точное извлечение (доверие 1) [6C5B6C3C]
Трек 4 точное извлечение (доверие 1) [0DA8914C]
Трек 5 точное извлечение (доверие 1) [2C366EFF]
Трек 6 точное извлечение (доверие 1) [B1511885]
Трек 7 точное извлечение (доверие 1) [9C917859]
Трек 8 точное извлечение (доверие 1) [2C7E9609]
Трек 9 точное извлечение (доверие 1) [E34770AC]
Трек 10 точное извлечение (доверие 1) [0474FEA7]
Трек 11 точное извлечение (доверие 1) [3A152571]
Трек 12 точное извлечение (доверие 1) [80BF6697]
Трек 13 точное извлечение (доверие 1) [894E9AB8]
Все треки извлечены точно
Конец отчёта
[Торрент-статистика]
[Профиль]  [ЛС] 

desa

Пол:

Стаж: 9 лет 4 месяца

Сообщений: 325

Репутация: 192 [+] [-]

Откуда: Урал

Пост 11-Июл-2014 04:51 (спустя 4 месяца 9 дней)

[Цитировать] 

Спасибо за раздачу в таком качестве !
А можно выложить дискографию = все в одной раздаче, буду очень благодарен.

_________________
Не проверена раздача - напиши Модератору !
[Торрент-статистика]
[Профиль]  [ЛС] 
Показать сообщения:    
Ответить на тему

Текущее время: Сегодня 03:43

Часовой пояс: GMT + 4



Вы не можете начинать темы
Вы не можете отвечать на сообщения
Вы не можете редактировать свои сообщения
Вы не можете удалять свои сообщения
Вы не можете голосовать в опросах
Вы не можете прикреплять файлы к сообщениям
Вы не можете скачивать файлы