Radiorama - 2 CD-singles "Cause The Night", "Beautiful Man" - 1997-1998, (Eurodance / Eurohouse), FLAC (image+.cue), lossless

Ответить на тему
 
Автор
Сообщение

Admiral ®

Пол:

Стаж: 7 лет 2 месяца

Сообщений: 606

Репутация: 146 [+] [-]

Пост 01-Мар-2014 18:54

[Цитировать] 

--Radiorama - 2 CD-singles "Cause The Night", "Beautiful Man"-- Жанр: Eurodance / Eurohouse
Носитель: CDM
Страна-производитель диска: Germany / Italy
Год издания: 1997-1998
Издатель (лейбл): Nova Music / 21st Century Records
Страна: Italy
Аудиокодек: FLAC (*.flac)
Тип рипа: image+.cue
Битрейт аудио: lossless
Продолжительность: 00:16:30 - 00:15:12
Наличие сканов в содержимом раздачи: да
Треклист:

1997 - Cause The Night (CD-Maxi) - Nova 004-20
01. factory team mix 6:05
02. fm mix 4:18
03. night mix 6:07

Отчёт EAC

Exact Audio Copy V1.0 beta 3 from 29. August 2011
Отчёт EAC об извлечении, выполненном 9. декабря 2013, 23:56
Radiorama / Cause The Night (CD-Maxi)
Дисковод: PIONEER BD-RW BDR-208D Adapter: 1 ID: 0
Режим чтения : Достоверность
Использование точного потока : Да
Отключение кэша аудио : Да
Использование указателей C2 : Нет
Коррекция смещения при чтении : 667
Способность читать области Lead-in и Lead-out : Нет
Заполнение пропущенных сэмплов тишиной : Да
Удаление блоков с тишиной в начале и конце : Нет
При вычислениях CRC использовались нулевые сэмплы : Да
Интерфейс : Установленный внешний ASPI-интерфейс
Выходной формат : Внутренние WAV-операции
Формат сэмплов : 44.100 Гц; 16 бит; стерео
TOC извлечённого CD
Трек | Старт | Длительность | Начальный сектор | Конечный сектор
---------------------------------------------------------------------
1 | 0:00.00 | 6:05.04 | 0 | 27378
2 | 6:05.04 | 4:18.53 | 27379 | 46781
3 | 10:23.57 | 6:07.26 | 46782 | 74332
Характеристики диапазона извлечения и сообщения об ошибках
Выбранный диапазон
Имя файла C:\Temp\Radiorama - 1997 - Cause The Night (CD-Maxi) - Nova 004-20.wav
Пиковый уровень 100.0 %
Скорость извлечения 5.6 X
Качество диапазона 100.0 %
CRC копии AF59E80D
Копирование... OK
Ошибок не произошло
AccurateRip: сводка
Трек 1 : извлечено точно (доверие 2) [95590758] (AR v1)
Трек 2 : извлечено точно (доверие 2) [5C1F3545] (AR v1)
Трек 3 : извлечено точно (доверие 2) [13933878] (AR v1)
Все треки извлечены точно
Конец отчёта
---- CUETools DB Plugin V2.1.3
[CTDB TOCID: KgfDnVmz4yg26YpgWGEPq7OKPeo-] found, Submit result: KgfDnVmz4yg26YpgWGEPq7OKPeo- has been confirmed
[009121ca] (3/3) Accurately ripped
==== Контрольная сумма отчёта 7E3444C1036C5F90B937CDE18FB65F4C2C87EE984668C68F0EF2608767A540EE ====
1998 - Beautiful Man (CD-Maxi) - CNT 21-229-2
01. Factory Team Mix 5:49
02. Alternative Mix 6:17
03. Radio Edit 3:06

Отчёт EAC

Exact Audio Copy V1.0 beta 3 from 29. August 2011
Отчёт EAC об извлечении, выполненном 10. декабря 2013, 0:06
Radiorama / Beautiful Man (CD-Maxi)
Дисковод: PIONEER BD-RW BDR-208D Adapter: 1 ID: 0
Режим чтения : Достоверность
Использование точного потока : Да
Отключение кэша аудио : Да
Использование указателей C2 : Нет
Коррекция смещения при чтении : 667
Способность читать области Lead-in и Lead-out : Нет
Заполнение пропущенных сэмплов тишиной : Да
Удаление блоков с тишиной в начале и конце : Нет
При вычислениях CRC использовались нулевые сэмплы : Да
Интерфейс : Установленный внешний ASPI-интерфейс
Выходной формат : Внутренние WAV-операции
Формат сэмплов : 44.100 Гц; 16 бит; стерео
TOC извлечённого CD
Трек | Старт | Длительность | Начальный сектор | Конечный сектор
---------------------------------------------------------------------
1 | 0:00.01 | 5:49.35 | 1 | 26210
2 | 5:49.36 | 6:17.65 | 26211 | 54550
3 | 12:07.26 | 3:06.37 | 54551 | 68537
Характеристики диапазона извлечения и сообщения об ошибках
Выбранный диапазон
Имя файла C:\Temp\Radiorama - 1998 - Beautiful Man (CD-Maxi) - CNT 21-229-2.wav
Пиковый уровень 94.2 %
Скорость извлечения 5.4 X
Качество диапазона 100.0 %
CRC копии DC198441
Копирование... OK
Ошибок не произошло
AccurateRip: сводка
Трек 1 отсутствует в базе данных
Трек 2 отсутствует в базе данных
Трек 3 отсутствует в базе данных
Ни одного трека нет в базе AccurateRip
Конец отчёта
---- CUETools DB Plugin V2.1.3
[CTDB TOCID: 5BUVIuzWw2ek99etpcLUyBFDWM4-] disk not present in database, Submit result: discs with pregaps not supported in this protocol version
==== Контрольная сумма отчёта 571B9A84E01EB7AB46D9071BEB228A45103933E1449656FDC9AEEB2EB0564D6D ====
[Торрент-статистика]
[Профиль]  [ЛС] 
Показать сообщения:    
Ответить на тему

Текущее время: Сегодня 02:31

Часовой пояс: GMT + 4



Вы не можете начинать темы
Вы не можете отвечать на сообщения
Вы не можете редактировать свои сообщения
Вы не можете удалять свои сообщения
Вы не можете голосовать в опросах
Вы не можете прикреплять файлы к сообщениям
Вы не можете скачивать файлы