Radiorama - Golden Disco Hits -2002, (Italo-Disco), FLAC, lossless

Ответить на тему
 
Автор
Сообщение

Admiral ®

Пол:

Стаж: 7 лет 2 месяца

Сообщений: 606

Репутация: 146 [+] [-]

Пост 01-Мар-2014 18:51

[Цитировать] 

--Radiorama - Golden Disco Hits-- Страна: Germany
Год выпуска: 2002 г.
Жанр: Italo-Disco
Продолжительность: 01:19:34
Аудио кодек: FLAC
Битрейт аудио: lossless
Треклист:


01. Desire (3:51)
02. Manitu (3:48)
03. Yeti (5:49)
04. YourLove (6:00)
05. Vampires (6:12)
06. CauseTheNight (6:05)
07. ChanceToDesire (4:05)
08. TouchMeNow (5:29)
09. Aliens (5:53)
10. LittleBird (5:18)
11. Warrior (4:17)
12. MyFantasy (5:06)
13. Fire (3:55)
14. LetMeBe (4:32)
15. FlightOfFantasy (3:58)
16. WhyBabyWhy (5:14)

Отчёт ЕАС

Exact Audio Copy V1.0 beta 3 from 29. August 2011
EAC extraction logfile from 7. October 2013, 8:18
Radiorama / Golden Disco Hits
Used drive : Optiarc DVD RW AD-7243S Adapter: 4 ID: 0
Read mode : Secure
Utilize accurate stream : Yes
Defeat audio cache : Yes
Make use of C2 pointers : No
Read offset correction : 48
Overread into Lead-In and Lead-Out : No
Fill up missing offset samples with silence : Yes
Delete leading and trailing silent blocks : No
Null samples used in CRC calculations : Yes
Used interface : Native Win32 interface for Win NT & 2000
Used output format : User Defined Encoder
Selected bitrate : 1024 kBit/s
Quality : High
Add ID3 tag : No
Command line compressor : C:\Program Files (x86)\Exact Audio Copy\Flac\flac.exe
Additional command line options : -8 -V -T "ARTIST=%artist%" -T "TITLE=%title%" -T "ALBUM=%albumtitle%" -T "DATE=%year%" -T "TRACKNUMBER=%tracknr1%" -T "GENRE=%genre%" -T "PERFORMER=%albuminterpret%" -T "COMPOSER=%composer%" %haslyrics%--tag-from-file=LYRICS="%lyricsfile%"%haslyrics% -T "ALBUMARTIST=%albumartist%" -T "DISCNUMBER=%cdnumber%" -T "TOTALDISCS=%totalcds%" -T "TOTALTRACKS=%numtracks%" -T "COMMENT=%comment%" %source% -o %dest%
TOC of the extracted CD
Track | Start | Length | Start sector | End sector
---------------------------------------------------------
1 | 0:00.00 | 3:50.68 | 0 | 17317
2 | 3:50.68 | 3:48.22 | 17318 | 34439
3 | 7:39.15 | 5:49.26 | 34440 | 60640
4 | 13:28.41 | 6:00.14 | 60641 | 87654
5 | 19:28.55 | 6:12.02 | 87655 | 115556
6 | 25:40.57 | 6:05.02 | 115557 | 142933
7 | 31:45.59 | 4:04.38 | 142934 | 161271
8 | 35:50.22 | 5:29.05 | 161272 | 185951
9 | 41:19.27 | 5:53.05 | 185952 | 212431
10 | 47:12.32 | 5:18.12 | 212432 | 236293
11 | 52:30.44 | 4:17.16 | 236294 | 255584
12 | 56:47.60 | 5:06.31 | 255585 | 278565
13 | 61:54.16 | 3:55.35 | 278566 | 296225
14 | 65:49.51 | 4:32.24 | 296226 | 316649
15 | 70:22.00 | 3:58.05 | 316650 | 334504
16 | 74:20.05 | 5:13.38 | 334505 | 358017
Range status and errors
Selected range
Filename E:\Музыка\Lossless\Radiorama - Golden Disco Hits (2002)\Radiorama - Golden Disco Hits.wav
Peak level 96.6 %
Extraction speed 4.6 X
Range quality 100.0 %
Test CRC 69F288DE
Copy CRC 69F288DE
Copy OK
No errors occurred
AccurateRip summary
Track 1 not present in database
Track 2 not present in database
Track 3 not present in database
Track 4 not present in database
Track 5 not present in database
Track 6 not present in database
Track 7 not present in database
Track 8 not present in database
Track 9 not present in database
Track 10 not present in database
Track 11 not present in database
Track 12 not present in database
Track 13 not present in database
Track 14 not present in database
Track 15 not present in database
Track 16 not present in database
None of the tracks are present in the AccurateRip database
End of status report
---- CUETools DB Plugin V2.1.3
[CTDB TOCID: HAQLlVgAsLleaKFC2l2.ePFUato-] found, Submit result: HAQLlVgAsLleaKFC2l2.ePFUato- has been confirmed
[95268716] (1/1) Accurately ripped
==== Log checksum 6A23936622B05F9471225A884A98BE9D58DDC3B6240216F939D78229EC450148 ====

[Торрент-статистика]
[Профиль]  [ЛС] 
Показать сообщения:    
Ответить на тему

Текущее время: Сегодня 20:03

Часовой пояс: GMT + 4



Вы не можете начинать темы
Вы не можете отвечать на сообщения
Вы не можете редактировать свои сообщения
Вы не можете удалять свои сообщения
Вы не можете голосовать в опросах
Вы не можете прикреплять файлы к сообщениям
Вы не можете скачивать файлы