Radiorama - Desires And Vampires - 2010, (Italo Disco), FLAC (image+.cue), lossless

Ответить на тему
 
Автор
Сообщение

Admiral ®

Пол:

Стаж: 7 лет 2 месяца

Сообщений: 606

Репутация: 146 [+] [-]

Пост 01-Мар-2014 18:44

[Цитировать] 

--Radiorama - Desires And Vampires-- Жанр: Italo Disco
Год выпуска диска: 2010
Производитель диска: Germany, ZYX 20920-2
Аудио кодек: FLAC
Тип рипа: image+.cue
Битрейт аудио: lossless
Продолжительность: 00:42:36
Трэклист:

1. Desire 3:50
2. Flight Of Fantasy (3:55)
3. Hey Hey (4:30)
4. Wacha Gonna Do (5:28)
5. Aliens (4:10)
6. Vampires (6:10)
7. Chance To Desire (4:10)
8. Friend (3:50)
9. Remix Of Desire (6:00)

Отчёт EAC

Exact Audio Copy V0.99 prebeta 1 from 25. May 2007
Отчёт EAC об извлечении, выполненном 15. мая 2010, 17:11
Radiorama / Desires And Vampires
Дисковод: PIONEER DVD-RW DVR-115D Adapter: 0 ID: 0
Режим чтения : Достоверность
Использование точного потока : Да
Отключение кэша аудио : Да
Использование указателей C2 : Нет
Коррекция смещения при чтении : 48
Способность читать области Lead-in и Lead-out : Нет
Заполнение пропущенных сэмплов тишиной : Да
Удаление блоков с тишиной в начале и конце : Нет
Интерфейс : Установленный внешний ASPI-интерфейс
Выходной формат : Внутренние WAV-операции
Формат сэмплов : 44.100 Гц; 16 бит; стерео
TOC извлечённого CD
Трек | Старт | Длительность | Начальный сектор | Конечный сектор
---------------------------------------------------------------------
1 | 0:00.00 | 3:52.56 | 0 | 17455
2 | 3:52.56 | 3:59.66 | 17456 | 35446
3 | 7:52.47 | 4:36.30 | 35447 | 56176
4 | 12:29.02 | 5:32.23 | 56177 | 81099
5 | 18:01.25 | 4:13.24 | 81100 | 100098
6 | 22:14.49 | 6:13.24 | 100099 | 128097
7 | 28:27.73 | 4:09.24 | 128098 | 146796
8 | 32:37.22 | 3:59.64 | 146797 | 164785
9 | 36:37.11 | 5:57.14 | 164786 | 191574
Характеристики диапазона извлечения и сообщения об ошибках
Выбранный диапазон
Имя файла D:\Torrents\Radiorama\Radiorama - Desires And Vampires.wav
Пиковый уровень 98.8 %
Качество диапазона 100.0 %
CRC теста C5637445
CRC копии C5637445
Копирование... OK
AccurateRip: сводка
Трек 1 нет в базе данных
Трек 2 нет в базе данных
Трек 3 нет в базе данных
Трек 4 нет в базе данных
Трек 5 нет в базе данных
Трек 6 нет в базе данных
Трек 7 нет в базе данных
Трек 8 нет в базе данных
Трек 9 нет в базе данных
Ошибок не произошло
Конец отчёта
[Торрент-статистика]
[Профиль]  [ЛС] 
Показать сообщения:    
Ответить на тему

Текущее время: Сегодня 19:40

Часовой пояс: GMT + 4



Вы не можете начинать темы
Вы не можете отвечать на сообщения
Вы не можете редактировать свои сообщения
Вы не можете удалять свои сообщения
Вы не можете голосовать в опросах
Вы не можете прикреплять файлы к сообщениям
Вы не можете скачивать файлы