Radiorama - The Best Of - 1989, (Italo-Disco, Synth-pop), FLAC (image+.cue), lossless

Ответить на тему
 
Автор
Сообщение

Admiral ®

Пол:

Стаж: 7 лет 2 месяца

Сообщений: 606

Репутация: 146 [+] [-]

Пост 01-Мар-2014 18:38

[Цитировать] 

--Radiorama - The Best Of-- Жанр: Italo-Disco, Synth-pop
Страна-производитель диска: Germany
Год издания диска: 1989
Издатель (лейбл): Ariola
Номер по каталогу: 259 980-217
Страна: Italy
Аудиокодек: FLAC (*.flac)
Тип рипа: image+.cue
Битрейт аудио: lossless
Продолжительность: 00:50:53
Наличие сканов в содержимом раздачи: да
Треклист:

1. Chance To Desire 7:07
2. Desire 5:56
3. Hey Hey (Remix '89) 5:10
4. Flight Of Fantasy (Remix '89) 5:10
5. Aliens (Remix '89) 6:15
6. Vampires (Remix '89) 6:26
7. Yeti (Remix '89) 7:45
8. ABCD 6:46

Producer – Paolo Gemma
Remix – Laurent G. Newfield*
Written-By – Giuliano Crivellente, Mauro Farina

Отчёт EAC

Exact Audio Copy V0.99 prebeta 5 from 4. May 2009
Отчёт EAC об извлечении, выполненном 17. июля 2011, 20:28
Radiorama / The Best Of
Дисковод: PLEXTOR CD-R PREMIUM2 Adapter: 0 ID: 0
Режим чтения : Достоверность
Использование точного потока : Да
Отключение кэша аудио : Да
Использование указателей C2 : Нет
Коррекция смещения при чтении : 30
Способность читать области Lead-in и Lead-out : Нет
Заполнение пропущенных сэмплов тишиной : Да
Удаление блоков с тишиной в начале и конце : Нет
При вычислениях CRC использовались нулевые сэмплы : Да
Интерфейс : Встроенный Win32-интерфейс для Win NT/2000
Выходной формат : Внутренние WAV-операции
Формат сэмплов : 44.100 Гц; 16 бит; стерео
TOC извлечённого CD
Трек | Старт | Длительность | Начальный сектор | Конечный сектор
---------------------------------------------------------------------
1 | 0:00.00 | 7:10.37 | 0 | 32286
2 | 7:10.37 | 5:58.58 | 32287 | 59194
3 | 13:09.20 | 5:11.12 | 59195 | 82531
4 | 18:20.32 | 5:16.23 | 82532 | 106254
5 | 23:36.55 | 6:15.57 | 106255 | 134436
6 | 29:52.37 | 6:25.08 | 134437 | 163319
7 | 36:17.45 | 7:48.42 | 163320 | 198461
8 | 44:06.12 | 6:46.38 | 198462 | 228949
Характеристики диапазона извлечения и сообщения об ошибках
Выбранный диапазон
Имя файла C:\Radiorama - The Best Of (259 980-217)\Radiorama - The Best Of.wav
Пиковый уровень 100.0 %
Качество диапазона 99.9 %
CRC теста 9A800D85
CRC копии 9A800D85
Копирование... OK
Ошибок не произошло
AccurateRip: сводка
Трек 1 нет в базе данных
Трек 2 нет в базе данных
Трек 3 нет в базе данных
Трек 4 нет в базе данных
Трек 5 нет в базе данных
Трек 6 нет в базе данных
Трек 7 нет в базе данных
Трек 8 нет в базе данных
Ни одного трека нет в базе AccurateRip
Конец отчёта
[Торрент-статистика]
[Профиль]  [ЛС] 
Показать сообщения:    
Ответить на тему

Текущее время: Сегодня 10:49

Часовой пояс: GMT + 4



Вы не можете начинать темы
Вы не можете отвечать на сообщения
Вы не можете редактировать свои сообщения
Вы не можете удалять свои сообщения
Вы не можете голосовать в опросах
Вы не можете прикреплять файлы к сообщениям
Вы не можете скачивать файлы