Radiorama - The Best Of - 1992, (Italo-Disco, Synth-pop), FLAC (image+.cue), lossless

Ответить на тему
 
Автор
Сообщение

Admiral ®

Пол:

Стаж: 7 лет 2 месяца

Сообщений: 606

Репутация: 146 [+] [-]

Пост 01-Мар-2014 18:35

[Цитировать] 

--Radiorama - The Best Of Radiorama-- Жанр: Italo-Disco, Synth-pop
Страна-производитель диска: Germany
Год издания диска: 1992
Издатель (лейбл): Lombardoni Publishings, Spectrum
Номер по каталогу: 517 795-2
Страна: Italy
Аудиокодек: FLAC (*.flac)
Тип рипа: image+.cue
Битрейт аудио: lossless
Продолжительность: 01:15:23
Наличие сканов в содержимом раздачи: да
Треклист:

1. Aliens (Remix '89) 6:17
2. Desire 6:02
3. Hey Hey (Remix '89) 5:14
4. Flight Of Fantasy (Remix '89) 5:18
5. Heartbreaker 6:18
6. Chance To Desire 7:05
7. Yeti (Remix '89) 7:50
8. ABCD 7:15
9. Bad Girls 6:49
10. Fire 5:54
11. Multimix Of Radiorama 11:21
11a Vampires 3:20
11b Hey hey 1:44
11c Aliens 2:00
11d Desire 1:44
11e Chance To Desire 2:20

Отчёт EAC

Exact Audio Copy V0.99 prebeta 5 from 4. May 2009
Отчёт EAC об извлечении, выполненном 24. июля 2011, 12:10
Radiorama / 1989 The Best Of Radiorama
Дисковод: PLEXTOR CD-R PREMIUM2 Adapter: 0 ID: 0
Режим чтения : Достоверность
Использование точного потока : Да
Отключение кэша аудио : Да
Использование указателей C2 : Нет
Коррекция смещения при чтении : 30
Способность читать области Lead-in и Lead-out : Нет
Заполнение пропущенных сэмплов тишиной : Да
Удаление блоков с тишиной в начале и конце : Нет
При вычислениях CRC использовались нулевые сэмплы : Да
Интерфейс : Встроенный Win32-интерфейс для Win NT/2000
Выходной формат : Внутренние WAV-операции
Формат сэмплов : 44.100 Гц; 16 бит; стерео
TOC извлечённого CD
Трек | Старт | Длительность | Начальный сектор | Конечный сектор
---------------------------------------------------------------------
1 | 0:00.32 | 6:17.18 | 32 | 28324
2 | 6:17.50 | 6:01.57 | 28325 | 55456
3 | 12:19.32 | 5:13.40 | 55457 | 78971
4 | 17:32.72 | 5:18.33 | 78972 | 102854
5 | 22:51.30 | 6:18.12 | 102855 | 131216
6 | 29:09.42 | 7:04.53 | 131217 | 163069
7 | 36:14.20 | 7:50.37 | 163070 | 198356
8 | 44:04.57 | 7:15.15 | 198357 | 230996
9 | 51:19.72 | 6:48.60 | 230997 | 261656
10 | 58:08.57 | 5:54.00 | 261657 | 288206
11 | 64:02.57 | 11:20.50 | 288207 | 339256
Характеристики диапазона извлечения и сообщения об ошибках
Выбранный диапазон
Имя файла Y:\Radiorama - The Best Of (Spectrum 517 795-2)\Radiorama - 1989 The Best Of Radiorama.wav
Пиковый уровень 92.6 %
Качество диапазона 100.0 %
CRC теста 8830F774
CRC копии 8830F774
Копирование... OK
Ошибок не произошло
AccurateRip: сводка
Трек 1 точное извлечение (доверие 3) [31565526]
Трек 2 точное извлечение (доверие 3) [FD19D89F]
Трек 3 точное извлечение (доверие 3) [3A810AA2]
Трек 4 точное извлечение (доверие 3) [C0B3FDAB]
Трек 5 точное извлечение (доверие 3) [ECF5DF69]
Трек 6 точное извлечение (доверие 3) [BEC4F5D0]
Трек 7 точное извлечение (доверие 3) [17F5DEC8]
Трек 8 точное извлечение (доверие 3) [25ADAB11]
Трек 9 точное извлечение (доверие 3) [C2C8D46E]
Трек 10 точное извлечение (доверие 3) [B559A4AE]
Трек 11 точное извлечение (доверие 3) [4AC58C61]
Все треки извлечены точно
Конец отчёта
[Торрент-статистика]
[Профиль]  [ЛС] 
Показать сообщения:    
Ответить на тему

Текущее время: Сегодня 14:14

Часовой пояс: GMT + 4



Вы не можете начинать темы
Вы не можете отвечать на сообщения
Вы не можете редактировать свои сообщения
Вы не можете удалять свои сообщения
Вы не можете голосовать в опросах
Вы не можете прикреплять файлы к сообщениям
Вы не можете скачивать файлы