Neoton Familia - Napraforgo - 1996,(Disco), FLAC (image+.cue), lossless

Ответить на тему
 
Автор
Сообщение

Admiral ®

Пол:

Стаж: 7 лет 2 месяца

Сообщений: 606

Репутация: 146 [+] [-]

Пост 28-Фев-2014 22:30

[Цитировать] 

--Neoton Familia - Napraforgo-- Жанр: Disco
Страна-производитель диска: Hungary
Год издания диска: 1996
Издатель (лейбл): Gong
Номер по каталогу: HCD 37817
Страна: Hungary
Аудиокодек: FLAC (*.flac)
Тип рипа: image+.cue
Битрейт аудио: lossless
Продолжительность: 00:50:55
Наличие сканов в содержимом раздачи: да
Треклист:

1. Ha Szombat Este Táncol 3:26
2. Szédült Napraforgó 3:25
3. Hegyirabló 3:16
4. Ha Varázslólány Lehetnék 4:01
5. Forrófejű Lány 4:35
6. Santa Maria 4:32
7. Szia! (Helló!) 3:36
8. Megőrülök A Szerelemért! 3:36
9. Diszkókece 3:14
10. Hazafelé 3:51
Bonus Tracks
11. Let's Go Dancing 3:49
12. Vándorének 2:57
13. California Dreamin' 6:33

Conductor – Deák Tamás
Guitar – Babos Gyula*
Hurdy Gurdy – Sebő Ferenc*
Percussion – Dzodzoglu Jorgosz, Kőszegi Imre*
Saxophone – Dés László*, Pócs Mihály
Trombone – Friedrich Károly*, Gőz László*
Trumpet – Gráner László, Tomsits Rudolf*
Written-By – Andrea Lo Vecchio (tracks: 7), Hatvani Emese (tracks: 1 to 8, 10 to 12), Bradányi Iván* (tracks: 11), Jakab György (tracks: 1 to 6, 8 to 10), John Phillips (tracks: 13), Pásztor László (tracks: 1 to 6, 8 to 12)
Originally Released in 1979.

Отчёт EAC

Exact Audio Copy V0.99 prebeta 5 from 4. May 2009
Отчёт EAC об извлечении, выполненном 1. сентября 2011, 0:03
Neoton Familia / Napraforgo
Дисковод: PLEXTOR CD-R PREMIUM2 Adapter: 0 ID: 0
Режим чтения : Достоверность
Использование точного потока : Да
Отключение кэша аудио : Да
Использование указателей C2 : Нет
Коррекция смещения при чтении : 30
Способность читать области Lead-in и Lead-out : Нет
Заполнение пропущенных сэмплов тишиной : Да
Удаление блоков с тишиной в начале и конце : Нет
При вычислениях CRC использовались нулевые сэмплы : Да
Интерфейс : Встроенный Win32-интерфейс для Win NT/2000
Выходной формат : Внутренние WAV-операции
Формат сэмплов : 44.100 Гц; 16 бит; стерео
TOC извлечённого CD
Трек | Старт | Длительность | Начальный сектор | Конечный сектор
---------------------------------------------------------------------
1 | 0:00.00 | 3:26.40 | 0 | 15489
2 | 3:26.40 | 3:25.17 | 15490 | 30881
3 | 6:51.57 | 3:16.50 | 30882 | 45631
4 | 10:08.32 | 4:01.28 | 45632 | 63734
5 | 14:09.60 | 4:35.15 | 63735 | 84374
6 | 18:45.00 | 4:32.32 | 84375 | 104806
7 | 23:17.32 | 3:36.13 | 104807 | 121019
8 | 26:53.45 | 3:36.17 | 121020 | 137236
9 | 30:29.62 | 3:14.65 | 137237 | 151851
10 | 33:44.52 | 3:51.23 | 151852 | 169199
11 | 37:36.00 | 3:49.00 | 169200 | 186374
12 | 41:25.00 | 2:57.00 | 186375 | 199649
13 | 44:22.00 | 6:33.27 | 199650 | 229151
Характеристики диапазона извлечения и сообщения об ошибках
Выбранный диапазон
Имя файла C:\Neoton Familia - Napraforgo (Gong HCD 37817)\Neoton Familia - Napraforgo.wav
Пиковый уровень 100.0 %
Качество диапазона 100.0 %
CRC теста 8CFD2AB8
CRC копии 8CFD2AB8
Копирование... OK
Ошибок не произошло
AccurateRip: сводка
Трек 1 точность не определена (достоверность 1) [0213418C], AccurateRip вернул [FE97CFD7]
Трек 2 точность не определена (достоверность 1) [B79618B2], AccurateRip вернул [FAE04D78]
Трек 3 точность не определена (достоверность 1) [949D0F74], AccurateRip вернул [5A944066]
Трек 4 точность не определена (достоверность 1) [7A340608], AccurateRip вернул [EF2396B3]
Трек 5 точность не определена (достоверность 1) [19429D55], AccurateRip вернул [0761675B]
Трек 6 точность не определена (достоверность 1) [8C89A938], AccurateRip вернул [7BC4798E]
Трек 7 точность не определена (достоверность 1) [3F23178D], AccurateRip вернул [4F7E2325]
Трек 8 точность не определена (достоверность 1) [869F8BF4], AccurateRip вернул [1C3F1A2E]
Трек 9 точность не определена (достоверность 1) [0772F61B], AccurateRip вернул [B465EAF1]
Трек 10 точность не определена (достоверность 1) [6FFBC195], AccurateRip вернул [6CA451E8]
Трек 11 точность не определена (достоверность 1) [486480C3], AccurateRip вернул [414DEB03]
Трек 12 точность не определена (достоверность 1) [42E16141], AccurateRip вернул [D68B9C91]
Трек 13 точность не определена (достоверность 1) [4282CF6F], AccurateRip вернул [037BF7C4]
Ни один трек не прошёл проверки на точность
В вашей базе может быть иной вариант штамповки диска
Конец отчёта
[Торрент-статистика]
[Профиль]  [ЛС] 
Показать сообщения:    
Ответить на тему

Текущее время: Сегодня 03:22

Часовой пояс: GMT + 4



Вы не можете начинать темы
Вы не можете отвечать на сообщения
Вы не можете редактировать свои сообщения
Вы не можете удалять свои сообщения
Вы не можете голосовать в опросах
Вы не можете прикреплять файлы к сообщениям
Вы не можете скачивать файлы