Федя Карманов - Золотая скрипка шансона - 2004, (Шансон), FLAC (image + .cue), lossless

Ответить на тему
 
Автор
Сообщение

Хоттабыч ®

Стаж: 5 лет 3 месяца

Сообщений: 30

Репутация: 20 [+] [-]

Пост 13-Авг-2013 20:10

[Цитировать] 

Федя Карманов - Золотая скрипка шансона
Жанр: Шансон
Страна: Россия
Год выпуска: 2004
Контейнер: FLAC (image + .cue)
Битрейт аудио: lossless
Продолжительность: 00:46:48-Трэклист:

01. Белла-шоколадочка
02. Плачь, скрипка
03. Цыганская трилогия
04. Ухарь купец
05. Одесские мотивы
06. До свиданья
07. Однажды в Америке
08. Любо, братцы, любо
09. Мундирчик
10. Ямщик, не гони лошадей
11. Чардаш
12. Денежки (дуэт с А.Полотно)

Отчёт EAC

Exact Audio Copy V1.0 beta 1 from 15. November 2010
Отчёт EAC об извлечении, выполненном 10. апреля 2013, 16:10
Федя Карманов / Золотая скрипка шансона
Дисковод: ASUS DRW-24B3ST Adapter: 0 ID: 1
Режим чтения : Достоверность
Использование точного потока : Да
Отключение кэша аудио : Да
Использование указателей C2 : Нет
Коррекция смещения при чтении : 6
Способность читать области Lead-in и Lead-out : Нет
Заполнение пропущенных сэмплов тишиной : Да
Удаление блоков с тишиной в начале и конце : Нет
При вычислениях CRC использовались нулевые сэмплы : Да
Интерфейс : Встроенный Win32-интерфейс для Win NT/2000
Выходной формат : Пользовательский кодировщик
Выбранный битрейт : 896 kBit/s
Качество : Высокий
Добавление ID3-тэга : Нет
Утилита сжатия : C:\Program Files\FLAC\flac.exe
Дополнительные параметры : -T "DATE=%y" -T "GENRE=%m" -8 -V %s
TOC извлечённого CD
Трек | Старт | Длительность | Начальный сектор | Конечный сектор
---------------------------------------------------------------------
1 | 0:00.00 | 2:36.38 | 0 | 11737
2 | 2:36.38 | 4:15.00 | 11738 | 30862
3 | 6:51.38 | 3:48.38 | 30863 | 48000
4 | 10:40.01 | 3:08.00 | 48001 | 62100
5 | 13:48.01 | 4:34.00 | 62101 | 82650
6 | 18:22.01 | 2:49.00 | 82651 | 95325
7 | 21:11.01 | 6:22.00 | 95326 | 123975
8 | 27:33.01 | 3:20.00 | 123976 | 138975
9 | 30:53.01 | 3:44.00 | 138976 | 155775
10 | 34:37.01 | 5:00.00 | 155776 | 178275
11 | 39:37.01 | 3:49.00 | 178276 | 195450
12 | 43:26.01 | 3:22.00 | 195451 | 210600
Характеристики диапазона извлечения и сообщения об ошибках
Выбранный диапазон
Имя файла D:\trofim\Федя Карманов - Золотая скрипка шансона.wav
Пиковый уровень 99.9 %
0.5 X
Качество диапазона 100.0 %
CRC теста FF482D0D
CRC копии FF482D0D
Копирование... OK
Ошибок не произошло
AccurateRip: сводка
Трек 1 точность не определена (достоверность 1) [15971F17], AccurateRip вернул [EE2FD395]
Трек 2 точность не определена (достоверность 1) [19EF21EE], AccurateRip вернул [B5591AF5]
Трек 3 точность не определена (достоверность 1) [18613684], AccurateRip вернул [CE79D31A]
Трек 4 точность не определена (достоверность 1) [5B06A010], AccurateRip вернул [50D875AB]
Трек 5 точность не определена (достоверность 1) [D12EB2F2], AccurateRip вернул [12B23176]
Трек 6 точность не определена (достоверность 1) [0916FC16], AccurateRip вернул [DD5B2AE6]
Трек 7 точность не определена (достоверность 1) [B143505A], AccurateRip вернул [8265663F]
Трек 8 точность не определена (достоверность 1) [3506C456], AccurateRip вернул [70B8B427]
Трек 9 точность не определена (достоверность 1) [D77A85C3], AccurateRip вернул [D127859A]
Трек 10 точность не определена (достоверность 1) [08FCE7D3], AccurateRip вернул [CC95974C]
Трек 11 точность не определена (достоверность 1) [8772348E], AccurateRip вернул [80D1A315]
Трек 12 точность не определена (достоверность 1) [50E8F2F5], AccurateRip вернул [2E45C9B3]
Ни один трек не прошёл проверки на точность
В вашей базе может быть иной вариант штамповки диска
Конец отчёта
==== 6CA60B42BBDBAA025C3F2FE8609394A43547B019A0C882BC80C0609CF12106FA ====

AudioChecker

AUDIOCHECKER v2.0 beta (build 457) - by Dester - opdester@freemail.hu
~~~~~~~~~~~~~~~~~~~~~~~~~~~~~~~~~~
-=== НЕ РЕДАКТИРУЙТЕ ЭТОТ ФАЙЛ! ===-
Путь: ...\trofim
1 -=- Федя Карманов - Золотая скрипка шансона.flac -=- CDDA (99%)
125378388
Федя Карманов и Анатолий Полотно - Денежки
[Торрент-статистика]
[Профиль]  [ЛС] 
Показать сообщения:    
Ответить на тему

Текущее время: Сегодня 20:17

Часовой пояс: GMT + 4



Вы не можете начинать темы
Вы не можете отвечать на сообщения
Вы не можете редактировать свои сообщения
Вы не можете удалять свои сообщения
Вы не можете голосовать в опросах
Вы не можете прикреплять файлы к сообщениям
Вы не можете скачивать файлы