Лариса Кучина - "Сломалась веточка" - 1999, (Шансон), APE (image+.cue) lossless

Ответить на тему
 
Автор
Сообщение

Admiral ®

Пол:

Стаж: 4 года 10 месяцев

Сообщений: 594

Репутация: 136 [+] [-]

Пост 03-Сен-2014 11:11

[Цитировать] 

--Лариса Кучина - Сломалась веточка-- Жанр: шансон
Страна-производитель диска: Россия
Год издания диска: 1999
Издатель (лейбл): Classic Company
Номер по каталогу: CD99-04
Страна: Россия
Аудио кодек: APE (*.ape)
Тип рипа: image+.cue
Битрейт аудио: lossless
Продолжительность: 00:39:09
Наличие сканов в содержимом раздачи: да
Треклист:

01. Сломалась веточка
02. Которая из Б
03. Цыганская гитара
04. Желтые свечи
05. Мама, мама
06. Девочка в лесу
07. Бабий век
08. Откройте белую
09. Черный платочик
10. Прохожий
11. Явилось чадо

Отчёт EAC

Exact Audio Copy V1.0 beta 1 from 15. November 2010
Отчёт EAC об извлечении, выполненном 8. января 2011, 22:07
Лариса Кучина / Сломалась веточка
Дисковод: _NEC DVD_RW ND-3550A Adapter: 0 ID: 0
Режим чтения : Достоверность
Использование точного потока : Да
Отключение кэша аудио : Да
Использование указателей C2 : Нет
Коррекция смещения при чтении : 48
Способность читать области Lead-in и Lead-out : Нет
Заполнение пропущенных сэмплов тишиной : Да
Удаление блоков с тишиной в начале и конце : Нет
При вычислениях CRC использовались нулевые сэмплы : Да
Интерфейс : Встроенный Win32-интерфейс для Win NT/2000
Выходной формат : Monkey's Audio Lossless Encoder v3.99 DLL
Формат сэмплов : Fast Lossless Compression
TOC извлечённого CD
Трек | Старт | Длительность | Начальный сектор | Конечный сектор
---------------------------------------------------------------------
1 | 0:00.00 | 3:26.57 | 0 | 15506
2 | 3:26.57 | 3:15.00 | 15507 | 30131
3 | 6:41.57 | 3:42.13 | 30132 | 46794
4 | 10:23.70 | 3:54.18 | 46795 | 64362
5 | 14:18.13 | 3:43.21 | 64363 | 81108
6 | 18:01.34 | 2:48.72 | 81109 | 93780
7 | 20:50.31 | 3:20.10 | 93781 | 108790
8 | 24:10.41 | 3:19.32 | 108791 | 123747
9 | 27:29.73 | 4:24.43 | 123748 | 143590
10 | 31:54.41 | 3:57.31 | 143591 | 161396
11 | 35:51.72 | 3:17.35 | 161397 | 176206
Характеристики диапазона извлечения и сообщения об ошибках
Выбранный диапазон
Имя файла I:\Лариса Кучина_Сломалась веточка\Лариса Кучина - Сломалась веточка.ape
Пиковый уровень 98.8 %
0.3 X
Качество диапазона 100.0 %
CRC теста F4BB0836
CRC копии F4BB0836
Копирование... OK
Ошибок не произошло
AccurateRip: сводка
Трек 1 нет в базе данных
Трек 2 нет в базе данных
Трек 3 нет в базе данных
Трек 4 нет в базе данных
Трек 5 нет в базе данных
Трек 6 нет в базе данных
Трек 7 нет в базе данных
Трек 8 нет в базе данных
Трек 9 нет в базе данных
Трек 10 нет в базе данных
Трек 11 нет в базе данных
Ни одного трека нет в базе Accu
[Торрент-статистика]
[Профиль]  [ЛС] 
Показать сообщения:    
Ответить на тему

Текущее время: Сегодня 20:35

Часовой пояс: GMT + 4



Вы не можете начинать темы
Вы не можете отвечать на сообщения
Вы не можете редактировать свои сообщения
Вы не можете удалять свои сообщения
Вы не можете голосовать в опросах
Вы не можете прикреплять файлы к сообщениям
Вы не можете скачивать файлы