Виктор Королёв - Расцвела Черёмуха - 2010, (Шансон), FLAC (image+.cue) lossless

Ответить на тему
 
Автор
Сообщение

Admiral ®

Пол:

Стаж: 4 года 8 месяцев

Сообщений: 593

Репутация: 136 [+] [-]

Пост 01-Сен-2014 20:46

[Цитировать] 

--Виктор Королёв - Расцвела Черёмуха-- Жанр: Шансон
Страна-производитель диска: Россия
Год издания диска: 2010
Издатель (лейбл): "Моно Центр"
Номер по каталогу: МС 88932
Страна: Россия
Аудио кодек: FLAC (*.flac)
Тип рипа: image+.cue
Битрейт аудио: lossless
Продолжительность: 01:19:49
Наличие сканов в содержимом раздачи: да
Треклист:

01. Расцвела черёмуха - 3:42
02. Качают небо золотые купола (feat. И.Круг) - 4:08
03. За твою красивую улыбку - 4:01
04. Милая - 3:45
05. Букет из белых роз (feat. И.Круг) - 4:04
06. Гуд! Гуд! - 3:22
07. Красная рябина - 3:58
08. Обручальное кольцо (feat. О. Стельмах) - 3:00
09. Поцелуй - 3:27
10. Хулиганка - 3:53
11. Самая, самая - 3:31
12. Уходят в море корабли - 2:59
13. А на ветках снегири - 4:00
14. Горячий поцелуй - 3:33
15. Жахнем - 3:39
16. Душа - 3:34
17. Мама, не ругай - 3:44
18. Белая-спелая - 2:58
19. Обманула! - 3:08
20. Твои глазки - 3:27
21. Драгоценная - 3:48
22. Околдуй меня - 4:09

ЕАС

Exact Audio Copy V0.99 prebeta 5 from 4. May 2009
Отчёт EAC об извлечении, выполненном 13. августа 2010, 0:57
Виктор Королёв / Расцвела черёмуха
Дисковод: ASUS DRW-1814BLT Adapter: 3 ID: 2
Режим чтения : Достоверность
Использование точного потока : Да
Отключение кэша аудио : Да
Использование указателей C2 : Нет
Коррекция смещения при чтении : 6
Способность читать области Lead-in и Lead-out : Нет
Заполнение пропущенных сэмплов тишиной : Да
Удаление блоков с тишиной в начале и конце : Нет
При вычислениях CRC использовались нулевые сэмплы : Да
Интерфейс : Установленный внешний ASPI-интерфейс
Выходной формат : Внутренние WAV-операции
Формат сэмплов : 44.100 Гц; 16 бит; стерео
TOC извлечённого CD
Трек | Старт | Длительность | Начальный сектор | Конечный сектор
---------------------------------------------------------------------
1 | 0:00.00 | 3:41.47 | 0 | 16621
2 | 3:41.47 | 4:07.59 | 16622 | 35205
3 | 7:49.31 | 4:00.49 | 35206 | 53254
4 | 11:50.05 | 3:44.73 | 53255 | 70127
5 | 15:35.03 | 4:04.28 | 70128 | 88455
6 | 19:39.31 | 3:21.44 | 88456 | 103574
7 | 23:01.00 | 3:58.36 | 103575 | 121460
8 | 26:59.36 | 3:00.12 | 121461 | 134972
9 | 29:59.48 | 3:27.18 | 134973 | 150515
10 | 33:26.66 | 3:53.34 | 150516 | 168024
11 | 37:20.25 | 3:30.51 | 168025 | 183825
12 | 40:51.01 | 2:59.25 | 183826 | 197275
13 | 43:50.26 | 3:59.58 | 197276 | 215258
14 | 47:50.09 | 3:32.51 | 215259 | 231209
15 | 51:22.60 | 3:38.49 | 231210 | 247608
16 | 55:01.34 | 3:33.66 | 247609 | 263649
17 | 58:35.25 | 3:43.44 | 263650 | 280418
18 | 62:18.69 | 2:57.41 | 280419 | 293734
19 | 65:16.35 | 3:07.57 | 293735 | 307816
20 | 68:24.17 | 3:26.62 | 307817 | 323328
21 | 71:51.04 | 3:48.01 | 323329 | 340429
22 | 75:39.05 | 4:09.33 | 340430 | 359137
Характеристики диапазона извлечения и сообщения об ошибках
Выбранный диапазон
Имя файла G:\Виктор Королев\Виктор Королёв - Расцвела черёмуха.wav
Пиковый уровень 100.0 %
Качество диапазона 100.0 %
CRC теста 316DB82A
CRC копии 316DB82A
Копирование... OK
Ошибок не произошло
AccurateRip: сводка
Трек 1 нет в базе данных
Трек 2 нет в базе данных
Трек 3 нет в базе данных
Трек 4 нет в базе данных
Трек 5 нет в базе данных
Трек 6 нет в базе данных
Трек 7 нет в базе данных
Трек 8 нет в базе данных
Трек 9 нет в базе данных
Трек 10 нет в базе данных
Трек 11 нет в базе данных
Трек 12 нет в базе данных
Трек 13 нет в базе данных
Трек 14 нет в базе данных
Трек 15 нет в базе данных
Трек 16 нет в базе данных
Трек 17 нет в базе данных
Трек 18 нет в базе данных
Трек 19 нет в базе данных
Трек 20 нет в базе данных
Трек 21 нет в базе данных
Трек 22 нет в базе данных
Ни одного трека нет в базе AccurateRip
Конец отчёта

Back

[Торрент-статистика]
[Профиль]  [ЛС] 
Показать сообщения:    
Ответить на тему

Текущее время: Сегодня 00:31

Часовой пояс: GMT + 4



Вы не можете начинать темы
Вы не можете отвечать на сообщения
Вы не можете редактировать свои сообщения
Вы не можете удалять свои сообщения
Вы не можете голосовать в опросах
Вы не можете прикреплять файлы к сообщениям
Вы не можете скачивать файлы