[CD] Виктор Калина - Вдыхаю небо - 2013, (Шансон), FLAC (image+.cue), lossless

Ответить на тему
 
Автор
Сообщение

Admiral ®

Пол:

Стаж: 4 года 8 месяцев

Сообщений: 593

Репутация: 136 [+] [-]

Пост 27-Авг-2014 22:06

[Цитировать] 

--Виктор Калина - Вдыхаю небо-- Жанр: Шансон
Носитель: CD
Страна-производитель диска: Белоруссия
Год издания: 2013
Издатель (лейбл): БИГМА
Номер по каталогу: 3688
Аудиокодек: FLAC (*.flac)
Тип рипа: image+.cue
Битрейт аудио: lossless
Продолжительность: 01:14:14
Наличие сканов в содержимом раздачи: да
Треклист:

01. Вдыхаю небо (3:45)
02. Что связало нас (3:36)
03. Красивая (4:21)
04. Шарик крутится (3:34)
05. После дождя (4:19)
06. Между небом и землёй (3:18)
07. Прошу за сыновей (4:16)
08. Холодное небо (3:42)
09. Мы похожие (3:31)
10. Доброе утро (3:18)
БОНУС:
11. Я скучаю (4:05)
12. Эта женщина (4:02)
13. Курю у окна (3:30)
14. Две промокших души (4:16)
15. Не гасите полночные свечи (4:26)
16. Стихи на снегу (4:22)
17. Офицерская правда (4:47)
18. Моя холодная весна (4:02)
19. Выпьем за друзей! (3:56)

Отчёт EAC

Exact Audio Copy V1.0 beta 3 from 29. August 2011
Отчёт EAC об извлечении, выполненном 26. августа 2014, 22:38
Виктор Калина / Вдыхаю небо
Дисковод: ASUS DRW-22B3S Adapter: 0 ID: 1
Режим чтения : Достоверность
Использование точного потока : Да
Отключение кэша аудио : Да
Использование указателей C2 : Нет
Коррекция смещения при чтении : 6
Способность читать области Lead-in и Lead-out : Нет
Заполнение пропущенных сэмплов тишиной : Да
Удаление блоков с тишиной в начале и конце : Нет
При вычислениях CRC использовались нулевые сэмплы : Да
Интерфейс : Встроенный Win32-интерфейс для Win NT/2000
Выходной формат : Внутренние WAV-операции
Формат сэмплов : 44.100 Гц; 16 бит; стерео
TOC извлечённого CD
Трек | Старт | Длительность | Начальный сектор | Конечный сектор
---------------------------------------------------------------------
1 | 0:00.00 | 3:45.44 | 0 | 16918
2 | 3:45.44 | 3:36.00 | 16919 | 33118
3 | 7:21.44 | 4:21.00 | 33119 | 52693
4 | 11:42.44 | 3:34.23 | 52694 | 68766
5 | 15:16.67 | 4:19.58 | 68767 | 88249
6 | 19:36.50 | 3:18.40 | 88250 | 103139
7 | 22:55.15 | 4:16.09 | 103140 | 122348
8 | 27:11.24 | 3:42.34 | 122349 | 139032
9 | 30:53.58 | 3:31.59 | 139033 | 154916
10 | 34:25.42 | 3:18.74 | 154917 | 169840
11 | 37:44.41 | 4:05.18 | 169841 | 188233
12 | 41:49.59 | 4:02.13 | 188234 | 206396
13 | 45:51.72 | 3:30.11 | 206397 | 222157
14 | 49:22.08 | 4:16.21 | 222158 | 241378
15 | 53:38.29 | 4:26.50 | 241379 | 261378
16 | 58:05.04 | 4:22.63 | 261379 | 281091
17 | 62:27.67 | 3:47.66 | 281092 | 298182
18 | 66:15.58 | 4:02.04 | 298183 | 316336
19 | 70:17.62 | 3:56.28 | 316337 | 334064
Характеристики диапазона извлечения и сообщения об ошибках
Выбранный диапазон
Имя файла C:\2013 - Виктор Калина - Вдыхаю небо\Виктор Калина - Вдыхаю небо.wav
Пиковый уровень 99.0 %
Скорость извлечения 3.5 X
Качество диапазона 100.0 %
CRC теста 333A09FE
CRC копии 333A09FE
Копирование... OK
Ошибок не произошло
AccurateRip: сводка
Трек 1 отсутствует в базе данных
Трек 2 отсутствует в базе данных
Трек 3 отсутствует в базе данных
Трек 4 отсутствует в базе данных
Трек 5 отсутствует в базе данных
Трек 6 отсутствует в базе данных
Трек 7 отсутствует в базе данных
Трек 8 отсутствует в базе данных
Трек 9 отсутствует в базе данных
Трек 10 отсутствует в базе данных
Трек 11 отсутствует в базе данных
Трек 12 отсутствует в базе данных
Трек 13 отсутствует в базе данных
Трек 14 отсутствует в базе данных
Трек 15 отсутствует в базе данных
Трек 16 отсутствует в базе данных
Трек 17 отсутствует в базе данных
Трек 18 отсутствует в базе данных
Трек 19 отсутствует в базе данных
Ни одного трека нет в базе AccurateRip
Конец отчёта
==== Контрольная сумма отчёта 48D788262BDCE7293D96894A42FB653482BD4266DB522BF14CDDAE8654FBD4AD ====
[Торрент-статистика]
[Профиль]  [ЛС] 
Показать сообщения:    
Ответить на тему

Текущее время: Сегодня 01:01

Часовой пояс: GMT + 4



Вы не можете начинать темы
Вы не можете отвечать на сообщения
Вы не можете редактировать свои сообщения
Вы не можете удалять свои сообщения
Вы не можете голосовать в опросах
Вы не можете прикреплять файлы к сообщениям
Вы не можете скачивать файлы