[CD] Ольга Стельмах - Страна Есения - 2013, (Шансон), FLAC (image+.cue), lossless

Ответить на тему
 
Автор
Сообщение

Admiral ®

Пол:

Стаж: 4 года 10 месяцев

Сообщений: 594

Репутация: 136 [+] [-]

Пост 23-Авг-2014 14:59

[Цитировать] 

--Ольга Стельмах - Страна Есения-- Жанр: Шансон
Носитель: CD
Страна-производитель диска: Россия
Год издания: 2013
Издатель (лейбл): Никитин ЭмДиСи
Номер по каталогу: NMDC CD 175/13
Аудиокодек: FLAC (*.flac)
Тип рипа: image+.cue
Битрейт аудио: lossless
Продолжительность: 00:40:21
Наличие сканов в содержимом раздачи: да
Треклист:

01. В этом мире я только прохожий... (3:11)
02. Закружилась листва золотая... (2:44)
03. Отойди от окна (3:55)
04. Голубая да весёлая страна... (3:15)
05. Ты такая ж простая, как все... (4:38)
06. Весенний вечер (3:08)
07. Думы (3:26)
08. Никогда я не был на Босфоре... (3:23)
09. Я по первому снегу бреду... (2:40)
10. Солнца луч золотой... (3:19)
11. Восход солнца (3:18)
12. Песни, песни, о чём вы кричите? (3:29)

Отчёт EAC

Exact Audio Copy V1.0 beta 3 from 29. August 2011
Отчёт EAC об извлечении, выполненном 1. августа 2014, 21:01
Ольга Стельмах / Страна Есения
Дисковод: ASUS DRW-22B3S Adapter: 0 ID: 1
Режим чтения : Достоверность
Использование точного потока : Да
Отключение кэша аудио : Да
Использование указателей C2 : Нет
Коррекция смещения при чтении : 6
Способность читать области Lead-in и Lead-out : Нет
Заполнение пропущенных сэмплов тишиной : Да
Удаление блоков с тишиной в начале и конце : Нет
При вычислениях CRC использовались нулевые сэмплы : Да
Интерфейс : Встроенный Win32-интерфейс для Win NT/2000
Выходной формат : Внутренние WAV-операции
Формат сэмплов : 44.100 Гц; 16 бит; стерео
TOC извлечённого CD
Трек | Старт | Длительность | Начальный сектор | Конечный сектор
---------------------------------------------------------------------
1 | 0:00.00 | 3:11.61 | 0 | 14385
2 | 3:11.61 | 2:44.07 | 14386 | 26692
3 | 5:55.68 | 3:35.53 | 26693 | 42870
4 | 9:31.46 | 3:15.69 | 42871 | 57564
5 | 12:47.40 | 4:38.09 | 57565 | 78423
6 | 17:25.49 | 3:08.21 | 78424 | 92544
7 | 20:33.70 | 3:36.39 | 92545 | 108783
8 | 24:10.34 | 3:23.41 | 108784 | 124049
9 | 27:34.00 | 2:40.16 | 124050 | 136065
10 | 30:14.16 | 3:19.58 | 136066 | 151048
11 | 33:33.74 | 3:18.28 | 151049 | 165926
12 | 36:52.27 | 3:29.02 | 165927 | 181603
Характеристики диапазона извлечения и сообщения об ошибках
Выбранный диапазон
Имя файла C:\2013 - Ольга Стельмах - Страна Есения\Ольга Стельмах - Страна Есения.wav
Пиковый уровень 98.8 %
Скорость извлечения 3.1 X
Качество диапазона 100.0 %
CRC теста 3CF3FFA2
CRC копии 3CF3FFA2
Копирование... OK
Ошибок не произошло
AccurateRip: сводка
Трек 1 отсутствует в базе данных
Трек 2 отсутствует в базе данных
Трек 3 отсутствует в базе данных
Трек 4 отсутствует в базе данных
Трек 5 отсутствует в базе данных
Трек 6 отсутствует в базе данных
Трек 7 отсутствует в базе данных
Трек 8 отсутствует в базе данных
Трек 9 отсутствует в базе данных
Трек 10 отсутствует в базе данных
Трек 11 отсутствует в базе данных
Трек 12 отсутствует в базе данных
Ни одного трека нет в базе AccurateRip
Конец отчёта
==== Контрольная сумма отчёта 5B0F42B8FD1A5DA78D8A8A21A78906A27D2FCFB2CAF7AABA50EF8E2989C4AD43 ====
[Торрент-статистика]
[Профиль]  [ЛС] 
Показать сообщения:    
Ответить на тему

Текущее время: Сегодня 20:37

Часовой пояс: GMT + 4



Вы не можете начинать темы
Вы не можете отвечать на сообщения
Вы не можете редактировать свои сообщения
Вы не можете удалять свои сообщения
Вы не можете голосовать в опросах
Вы не можете прикреплять файлы к сообщениям
Вы не можете скачивать файлы