[CD] Аркадий Северный - Олимпийский концерт (2CD) - 2014, (Шансон), FLAC (image+.cue), lossless

Ответить на тему
 
Автор
Сообщение

Admiral ®

Пол:

Стаж: 4 года 10 месяцев

Сообщений: 594

Репутация: 136 [+] [-]

Пост 23-Авг-2014 12:40

[Цитировать] 

--Аркадий Северный -Олимпийский концерт (2CD)-- Жанр: Шансон
Носитель: CD
Страна-производитель диска: Россия
Год издания: 2014
Издатель (лейбл): Студия "Ночное такси" & Тонгкат
Аудиокодек: FLAC (*.flac)
Тип рипа: image+.cue
Битрейт аудио: lossless
Продолжительность: 01:27:03
Наличие сканов в содержимом раздачи: да
Треклист:

CD 1

01. Интро (0:56)
02. Вступление (А. Северный и Н. Рязанов) (1:46)
03. Мой друг Серега (3:00)
04. Стоишь ты на углу (4:18)
05. Светка (7:48)
06. Пара девиц (4:21)
07. Мальчишки (3:44)
08. Эммануэль (5:57)
09. Алкоголик (4:53)
10. Страдания (5:03)
11. Достойно (3:28)

EAC

Exact Audio Copy V1.0 beta 3 from 29. August 2011
Отчёт EAC об извлечении, выполненном 17. августа 2014, 22:57
Аркадий Северный / Олимпийский концерт (CD 1)
Дисковод: ASUS DRW-22B3S Adapter: 0 ID: 1
Режим чтения : Достоверность
Использование точного потока : Да
Отключение кэша аудио : Да
Использование указателей C2 : Нет
Коррекция смещения при чтении : 6
Способность читать области Lead-in и Lead-out : Нет
Заполнение пропущенных сэмплов тишиной : Да
Удаление блоков с тишиной в начале и конце : Нет
При вычислениях CRC использовались нулевые сэмплы : Да
Интерфейс : Встроенный Win32-интерфейс для Win NT/2000
Выходной формат : Внутренние WAV-операции
Формат сэмплов : 44.100 Гц; 16 бит; стерео
TOC извлечённого CD
Трек | Старт | Длительность | Начальный сектор | Конечный сектор
---------------------------------------------------------------------
1 | 0:00.00 | 0:56.36 | 0 | 4235
2 | 0:56.36 | 1:46.04 | 4236 | 12189
3 | 2:42.40 | 3:00.47 | 12190 | 25736
4 | 5:43.12 | 4:18.52 | 25737 | 45138
5 | 10:01.64 | 7:48.03 | 45139 | 80241
6 | 17:49.67 | 4:21.42 | 80242 | 99858
7 | 22:11.34 | 3:44.26 | 99859 | 116684
8 | 25:55.60 | 5:57.54 | 116685 | 143513
9 | 31:53.39 | 4:53.22 | 143514 | 165510
10 | 36:46.61 | 5:03.56 | 165511 | 188291
11 | 41:50.42 | 3:28.20 | 188292 | 203911
Характеристики диапазона извлечения и сообщения об ошибках
Выбранный диапазон
Имя файла C:\2014 - Аркадий Северный - Олимпийский концерт (2CD)\CD 1\Аркадий Северный - Олимпийский концерт (CD 1).wav
Пиковый уровень 98.7 %
Скорость извлечения 3.2 X
Качество диапазона 100.0 %
CRC теста B7BDA37C
CRC копии B7BDA37C
Копирование... OK
Ошибок не произошло
AccurateRip: сводка
Трек 1 отсутствует в базе данных
Трек 2 отсутствует в базе данных
Трек 3 отсутствует в базе данных
Трек 4 отсутствует в базе данных
Трек 5 отсутствует в базе данных
Трек 6 отсутствует в базе данных
Трек 7 отсутствует в базе данных
Трек 8 отсутствует в базе данных
Трек 9 отсутствует в базе данных
Трек 10 отсутствует в базе данных
Трек 11 отсутствует в базе данных
Ни одного трека нет в базе AccurateRip
Конец отчёта
==== Контрольная сумма отчёта 2E61C69BF65CFC6DD2837021AA7A2C747F51D07EA2446F3DC11614FB37EBB361 ====

CD 2

01. Интро (0:56)
02. Одесса с морем рядом (2:20)
03. Полчаса до рейса (3:54)
04. Объявили посадку на Сочи... (4:11)
05. Мне не нужны (5:01)
06. Случай возле бани (6:02)
07. В феврале морозы нынче люты (4:33)
08. В Пицунде (4:41)
09. Наступает разлука с тобой (5:20)
10. Почему, почему (3:42)

EAC

Exact Audio Copy V1.0 beta 3 from 29. August 2011
Отчёт EAC об извлечении, выполненном 18. августа 2014, 0:05
Аркадий Северный / Олимпийский концерт (CD 2)
Дисковод: ASUS DRW-22B3S Adapter: 0 ID: 1
Режим чтения : Достоверность
Использование точного потока : Да
Отключение кэша аудио : Да
Использование указателей C2 : Нет
Коррекция смещения при чтении : 6
Способность читать области Lead-in и Lead-out : Нет
Заполнение пропущенных сэмплов тишиной : Да
Удаление блоков с тишиной в начале и конце : Нет
При вычислениях CRC использовались нулевые сэмплы : Да
Интерфейс : Встроенный Win32-интерфейс для Win NT/2000
Выходной формат : Внутренние WAV-операции
Формат сэмплов : 44.100 Гц; 16 бит; стерео
TOC извлечённого CD
Трек | Старт | Длительность | Начальный сектор | Конечный сектор
---------------------------------------------------------------------
1 | 0:00.00 | 0:56.22 | 0 | 4221
2 | 0:56.22 | 2:20.01 | 4222 | 14722
3 | 3:16.23 | 3:54.53 | 14723 | 32325
4 | 7:11.01 | 4:11.54 | 32326 | 51204
5 | 11:22.55 | 5:01.63 | 51205 | 73842
6 | 16:24.43 | 6:02.03 | 73843 | 100995
7 | 22:26.46 | 5:33.38 | 100996 | 126008
8 | 28:00.09 | 4:41.74 | 126009 | 147157
9 | 32:42.08 | 5:20.65 | 147158 | 171222
10 | 38:02.73 | 3:42.31 | 171223 | 187903
Характеристики диапазона извлечения и сообщения об ошибках
Выбранный диапазон
Имя файла C:\2014 - Аркадий Северный - Олимпийский концерт (2CD)\CD 2\Аркадий Северный - Олимпийский концерт (CD 2).wav
Пиковый уровень 98.7 %
Скорость извлечения 3.2 X
Качество диапазона 100.0 %
CRC теста 7D6A9BE9
CRC копии 7D6A9BE9
Копирование... OK
Ошибок не произошло
AccurateRip: сводка
Трек 1 отсутствует в базе данных
Трек 2 отсутствует в базе данных
Трек 3 отсутствует в базе данных
Трек 4 отсутствует в базе данных
Трек 5 отсутствует в базе данных
Трек 6 отсутствует в базе данных
Трек 7 отсутствует в базе данных
Трек 8 отсутствует в базе данных
Трек 9 отсутствует в базе данных
Трек 10 отсутствует в базе данных
Ни одного трека нет в базе AccurateRip
Конец отчёта
==== Контрольная сумма отчёта 674AC283345B448DBBFDA4F7A2AE0EC9FF49CF81F28B37725B796B37516DF1A3 ====
[Торрент-статистика]
[Профиль]  [ЛС] 
Показать сообщения:    
Ответить на тему

Текущее время: Сегодня 20:13

Часовой пояс: GMT + 4



Вы не можете начинать темы
Вы не можете отвечать на сообщения
Вы не можете редактировать свои сообщения
Вы не можете удалять свои сообщения
Вы не можете голосовать в опросах
Вы не можете прикреплять файлы к сообщениям
Вы не можете скачивать файлы