VA - Романсы нашего века - 2012, (Шансон), FLAC (image+.cue), lossless

Ответить на тему
 
Автор
Сообщение

Admiral ®

Пол:

Стаж: 4 года 8 месяцев

Сообщений: 593

Репутация: 136 [+] [-]

Пост 23-Авг-2014 11:07

[Цитировать] 

--VA - Романсы нашего века-- Жанр: Шансон
Страна-производитель диска: Россия
Год издания: 2012
Издатель (лейбл): Классик Компани
Страна: Россия
Аудиокодек: FLAC (*.flac)
Тип рипа: image+.cue
Битрейт аудио: lossless
Продолжительность: 01:10:39
Наличие сканов в содержимом раздачи: да
Треклист:
01. Елена Ваенга – Шопен
02. Стас Михайлов – Ты моя
03. Ирина Круг - Любить не страшно
04. Андрей Бандера – Хулиган
05. Сергей Трофимов - Я скучаю по тебе
06. Рада Рай - Я тобой уже не болею
07. Иван Кучин – Розовый конь
08. Михаил Круг - Лебеди
09. Владислав Медяник - Чёрная роза
10. Анатолий Днепров – Ах, как жаль
11. Артур - А любовь осенняя
12. Стас Белый - Романс
13. гр.Кабриолет – Не грусти, не надо...
14. Виктор Королев – Ты права
15. Александр Малинин – Чертополох
16. Катя Огонек – Я не могу без него
17. Сергей Любавин – Звезда ненаглядная
18. Ольга Стельмах – Вы любите меня...

Отчёт EAC

Exact Audio Copy V1.0 beta 1 from 15. November 2010
Отчёт EAC об извлечении, выполненном 30. мая 2013, 0:47
Various / Романсы нашего века
Дисковод: Optiarc DVD RW AD-7260S Adapter: 1 ID: 0
Режим чтения : Достоверность
Использование точного потока : Да
Отключение кэша аудио : Да
Использование указателей C2 : Нет
Коррекция смещения при чтении : 48
Способность читать области Lead-in и Lead-out : Нет
Заполнение пропущенных сэмплов тишиной : Да
Удаление блоков с тишиной в начале и конце : Нет
При вычислениях CRC использовались нулевые сэмплы : Да
Интерфейс : Встроенный Win32-интерфейс для Win NT/2000
Выходной формат : Внутренние WAV-операции
Формат сэмплов : 44.100 Гц; 16 бит; стерео
TOC извлечённого CD
Трек | Старт | Длительность | Начальный сектор | Конечный сектор
---------------------------------------------------------------------
1 | 0:00.00 | 3:57.16 | 0 | 17790
2 | 3:57.16 | 4:22.25 | 17791 | 37465
3 | 8:19.41 | 4:05.15 | 37466 | 55855
4 | 12:24.56 | 3:34.09 | 55856 | 71914
5 | 15:58.65 | 4:26.72 | 71915 | 91936
6 | 20:25.62 | 4:10.63 | 91937 | 110749
7 | 24:36.50 | 3:34.01 | 110750 | 126800
8 | 28:10.51 | 3:40.36 | 126801 | 143336
9 | 31:51.12 | 4:17.23 | 143337 | 162634
10 | 36:08.35 | 3:38.11 | 162635 | 178995
11 | 39:46.46 | 4:13.00 | 178996 | 197970
12 | 43:59.46 | 4:23.38 | 197971 | 217733
13 | 48:23.09 | 5:37.46 | 217734 | 243054
14 | 54:00.55 | 3:33.37 | 243055 | 259066
15 | 57:34.17 | 3:42.60 | 259067 | 275776
16 | 61:17.02 | 3:25.50 | 275777 | 291201
17 | 64:42.52 | 3:54.00 | 291202 | 308751
18 | 68:36.52 | 2:02.38 | 308752 | 317939
Характеристики диапазона извлечения и сообщения об ошибках
Выбранный диапазон
Имя файла C:\Users\Анатолий\Desktop\Музыка\VA Романсы нашего века\Various - Романсы нашего века.wav
Пиковый уровень 100.0 %
0.0 X
Качество диапазона 100.0 %
CRC теста DA4BC671
CRC копии DA4BC671
Копирование... OK
Ошибок не произошло
AccurateRip: сводка
Трек 1 нет в базе данных
Трек 2 нет в базе данных
Трек 3 нет в базе данных
Трек 4 нет в базе данных
Трек 5 нет в базе данных
Трек 6 нет в базе данных
Трек 7 нет в базе данных
Трек 8 нет в базе данных
Трек 9 нет в базе данных
Трек 10 нет в базе данных
Трек 11 нет в базе данных
Трек 12 нет в базе данных
Трек 13 нет в базе данных
Трек 14 нет в базе данных
Трек 15 нет в базе данных
Трек 16 нет в базе данных
Трек 17 нет в базе данных
Трек 18 нет в базе данных
Ни одного трека нет в базе AccurateRip
Конец отчёта
==== 3EBEA55EAB94F384AD528A80715E93FA8412BF7C56D70F81A2E16265BB684E21 ====
[Торрент-статистика]
[Профиль]  [ЛС] 

ttan

Пол:

Стаж: 6 лет 4 месяца

Сообщений: 616

Репутация: 378 [+] [-]

Откуда: где - то на Севере ...

Пост 23-Авг-2014 17:39 (спустя 6 часов)

[Цитировать] 

спасибо большое ...
удачи !

_________________
[Торрент-статистика]
[Профиль]  [ЛС] 
Показать сообщения:    
Ответить на тему

Текущее время: Сегодня 01:08

Часовой пояс: GMT + 4



Вы не можете начинать темы
Вы не можете отвечать на сообщения
Вы не можете редактировать свои сообщения
Вы не можете удалять свои сообщения
Вы не можете голосовать в опросах
Вы не можете прикреплять файлы к сообщениям
Вы не можете скачивать файлы