VA - Ээхх, Разгуляй! - часть 5 - 2012, (Шансон), FLAC (image+.cue), lossless

Ответить на тему
 
Автор
Сообщение

Admiral ®

Пол:

Стаж: 4 года 10 месяцев

Сообщений: 594

Репутация: 136 [+] [-]

Пост 10-Июл-2014 16:53

[Цитировать] 

--Various - Ээхх, Разгуляй! - часть 5-- Жанр: Шансон
Страна-производитель диска: Россия
Год издания: 2012
Издатель (лейбл): КВАДРО-ДИСК
Аудиокодек: FLAC (*.flac)
Тип рипа: image+.cue
Битрейт аудио: lossless
Продолжительность: 01:11:28
Наличие сканов в содержимом раздачи: да


01. Валерий Курас -- Пампушечка (3:07)
02. Рада Рай -- Всё или ничего (3:25)
03. Андрей Бандера -- Зацепила (3:19)
04. Елена Ваенга -- Больно (4:37)
05. Стас Михайлов -- Женщина-вамп (3:21)
06. Денис Майданов -- Вечная любовь (3:29)
07. Григорий Лепс -- Зима (4:01)
08. Ирина Круг -- Метель (3:03)
09. Александр Ломинский -- Сердце ранимое (3:29)
10. Александр Маршал -- Жизнь (3:57)
11. Дмитрий Хмелев и коллектив 'Джелем' -- Цыганочка (4:18)
12. Гарик Сукачёв и гр.Неприкасаемые -- О чем поет гитара (4:47)
13. Артур -- Непонимание (3:45)
14. Владимир Асмолов -- Осень жизни (3:06)
15. Иосиф Кобзон и гр.Республика -- За туманом (3:42)
16. Вика Цыганова -- Доставай гитару (3:56)
17. гр. 'Бутырка' -- Твое тепло (4:35)
18. Александр Марцинкевич и гр. 'Кабриолет' -- Песню нежную напевала (3:41)
19. Сергей Трофимов -- Текила Бум (3:51)

Отчёт EAC

Exact Audio Copy V1.0 beta 1 from 15. November 2010
Отчёт EAC об извлечении, выполненном 18. ноября 2012, 14:23
Various / Ээхх, разгуляй - часть 5
Дисковод: Optiarc DVD RW AD-7260S Adapter: 1 ID: 0
Режим чтения : Достоверность
Использование точного потока : Да
Отключение кэша аудио : Да
Использование указателей C2 : Нет
Коррекция смещения при чтении : 48
Способность читать области Lead-in и Lead-out : Нет
Заполнение пропущенных сэмплов тишиной : Да
Удаление блоков с тишиной в начале и конце : Нет
При вычислениях CRC использовались нулевые сэмплы : Да
Интерфейс : Встроенный Win32-интерфейс для Win NT/2000
Выходной формат : Внутренние WAV-операции
Формат сэмплов : 44.100 Гц; 16 бит; стерео
TOC извлечённого CD
Трек | Старт | Длительность | Начальный сектор | Конечный сектор
---------------------------------------------------------------------
1 | 0:00.00 | 3:07.31 | 0 | 14055
2 | 3:07.31 | 3:25.26 | 14056 | 29456
3 | 6:32.57 | 3:18.70 | 29457 | 44376
4 | 9:51.52 | 4:36.55 | 44377 | 65131
5 | 14:28.32 | 3:21.00 | 65132 | 80206
6 | 17:49.32 | 3:28.46 | 80207 | 95852
7 | 21:18.03 | 4:00.44 | 95853 | 113896
8 | 25:18.47 | 3:02.65 | 113897 | 127611
9 | 28:21.37 | 3:28.69 | 127612 | 143280
10 | 31:50.31 | 3:56.41 | 143281 | 161021
11 | 35:46.72 | 4:18.16 | 161022 | 180387
12 | 40:05.13 | 4:46.53 | 180388 | 201890
13 | 44:51.66 | 3:45.25 | 201891 | 218790
14 | 48:37.16 | 3:06.27 | 218791 | 232767
15 | 51:43.43 | 3:41.70 | 232768 | 249412
16 | 55:25.38 | 3:56.29 | 249413 | 267141
17 | 59:21.67 | 4:34.46 | 267142 | 287737
18 | 63:56.38 | 3:41.05 | 287738 | 304317
19 | 67:37.43 | 3:50.50 | 304318 | 321617
Характеристики диапазона извлечения и сообщения об ошибках
Выбранный диапазон
Имя файла C:\Users\Анатолий\Desktop\Музыка\VA Ээхх, разгуляй-часть 5\Various - Ээхх, разгуляй - часть 5.wav
Пиковый уровень 98.0 %
0.1 X
Качество диапазона 100.0 %
CRC теста 5CA59F09
CRC копии 5CA59F09
Копирование... OK
Ошибок не произошло
AccurateRip: сводка
Трек 1 нет в базе данных
Трек 2 нет в базе данных
Трек 3 нет в базе данных
Трек 4 нет в базе данных
Трек 5 нет в базе данных
Трек 6 нет в базе данных
Трек 7 нет в базе данных
Трек 8 нет в базе данных
Трек 9 нет в базе данных
Трек 10 нет в базе данных
Трек 11 нет в базе данных
Трек 12 нет в базе данных
Трек 13 нет в базе данных
Трек 14 нет в базе данных
Трек 15 нет в базе данных
Трек 16 нет в базе данных
Трек 17 нет в базе данных
Трек 18 нет в базе данных
Трек 19 нет в базе данных
Ни одного трека нет в базе AccurateRip
Конец отчёта
==== 7509273174ACFC36F7B542E723D3EA344FD729A5B73B2834BA8CD261ADF81BD3 ====

[Торрент-статистика]
[Профиль]  [ЛС] 
Показать сообщения:    
Ответить на тему

Текущее время: Сегодня 19:34

Часовой пояс: GMT + 4



Вы не можете начинать темы
Вы не можете отвечать на сообщения
Вы не можете редактировать свои сообщения
Вы не можете удалять свои сообщения
Вы не можете голосовать в опросах
Вы не можете прикреплять файлы к сообщениям
Вы не можете скачивать файлы