VA - Ээхх, разгуляй! часть 4 - 2011, (Шансон), FLAC (image+.cue), lossless

Ответить на тему
 
Автор
Сообщение

Admiral ®

Пол:

Стаж: 4 года 10 месяцев

Сообщений: 594

Репутация: 136 [+] [-]

Пост 10-Июл-2014 16:52

[Цитировать] 

--Various Artists - Ээхх, разгуляй! часть 4-- Жанр: Шансон
Страна-производитель диска: Россия
Год издания: 2011
Издатель (лейбл): КВАДРО-ДИСК
Аудиокодек: FLAC (*.flac)
Тип рипа: image+.cue
Битрейт аудио: lossless
Продолжительность:01:04:19
Наличие сканов в содержимом раздачи: да


01. Елена Ваенга -- Принцесса (3:48)
02. Сергей Трофимов -- Бубль гум (2:32)
03. Михаил Шуфутинский -- Гуляй, душа! (3:37)
04. Рада Рай -- Гуси-лебеди (4:42)
05. Валерий Курас -- Эх, покуролесили! (3:49)
06. Ирина Круг -- Без тебя (3:14)
07. Сергей Ноябрьский -- Дорогой долгой (3:05)
08. Вилли Токарев -- Стаканчики (3:14)
09. Вячеслав Быков -- Ты приходишь ко мне (3:36)
10. Вика Цыганова -- Синие мои цветы (3:25)
11. Евгений Росс и Евгений Кемеровский -- Заплутали мишки, заплутали (3:12)
12. Афина -- Все будет хорошо (3:35)
13. Юрий Лоза -- Пой, моя гитара (3:54)
14. Стас Михайлов -- Мир без тебя (3:17)
15. Любовь Успенская -- А давай начнем сначала (3:31)
16. Александр Розенбаум -- Отрывайтесь (4:19)
17. Любовь Шепилова -- Так гуляй душа! (3:43)
18. Виктор Королев -- Вишня (3:45)

Отчёт EAC

Exact Audio Copy V1.0 beta 3 from 29. August 2011
Отчёт EAC об извлечении, выполненном 20. января 2012, 20:06
Various Artists / Ээхх, разгуляй! часть 4
Дисковод: ASUS DRW-1814BLT Adapter: 2 ID: 0
Режим чтения : Достоверность
Использование точного потока : Да
Отключение кэша аудио : Да
Использование указателей C2 : Нет
Коррекция смещения при чтении : 6
Способность читать области Lead-in и Lead-out : Нет
Заполнение пропущенных сэмплов тишиной : Да
Удаление блоков с тишиной в начале и конце : Нет
При вычислениях CRC использовались нулевые сэмплы : Да
Интерфейс : Встроенный Win32-интерфейс для Win NT/2000
Выходной формат : Внутренние WAV-операции
Формат сэмплов : 44.100 Гц; 16 бит; стерео
TOC извлечённого CD
Трек | Старт | Длительность | Начальный сектор | Конечный сектор
---------------------------------------------------------------------
1 | 0:00.00 | 3:48.27 | 0 | 17126
2 | 3:48.27 | 2:31.47 | 17127 | 28498
3 | 6:19.74 | 3:37.23 | 28499 | 44796
4 | 9:57.22 | 4:42.28 | 44797 | 65974
5 | 14:39.50 | 3:48.44 | 65975 | 83118
6 | 18:28.19 | 3:14.14 | 83119 | 97682
7 | 21:42.33 | 3:04.59 | 97683 | 111541
8 | 24:47.17 | 3:13.67 | 111542 | 126083
9 | 28:01.09 | 3:35.46 | 126084 | 142254
10 | 31:36.55 | 3:24.60 | 142255 | 157614
11 | 35:01.40 | 3:12.10 | 157615 | 172024
12 | 38:13.50 | 3:35.29 | 172025 | 188178
13 | 41:49.04 | 3:54.04 | 188179 | 205732
14 | 45:43.08 | 3:17.26 | 205733 | 220533
15 | 49:00.34 | 3:30.45 | 220534 | 236328
16 | 52:31.04 | 4:19.27 | 236329 | 255780
17 | 56:50.31 | 3:43.15 | 255781 | 272520
18 | 60:33.46 | 3:45.03 | 272521 | 289398
Характеристики диапазона извлечения и сообщения об ошибках
Выбранный диапазон
Имя файла F:\Lossless\1. Шансон, Авторская и Военная песня\Сборники\Various Artists - Ээхх, разгуляй! часть 4\Various Artists - Ээхх, разгуляй! часть 4.wav
Пиковый уровень 97.7 %
Скорость извлечения 9.2 X
Качество диапазона 100.0 %
CRC теста 831E0A2B
CRC копии 831E0A2B
Копирование... OK
Ошибок не произошло
AccurateRip: сводка
Трек 1 отсутствует в базе данных
Трек 2 отсутствует в базе данных
Трек 3 отсутствует в базе данных
Трек 4 отсутствует в базе данных
Трек 5 отсутствует в базе данных
Трек 6 отсутствует в базе данных
Трек 7 отсутствует в базе данных
Трек 8 отсутствует в базе данных
Трек 9 отсутствует в базе данных
Трек 10 отсутствует в базе данных
Трек 11 отсутствует в базе данных
Трек 12 отсутствует в базе данных
Трек 13 отсутствует в базе данных
Трек 14 отсутствует в базе данных
Трек 15 отсутствует в базе данных
Трек 16 отсутствует в базе данных
Трек 17 отсутствует в базе данных
Трек 18 отсутствует в базе данных
Ни одного трека нет в базе AccurateRip
Конец отчёта
==== Контрольная сумма отчёта 5CA8A730C423E38A634C6F7432A1D687F6B75938FCF69691105D3C16EA736A01 ====

[Торрент-статистика]
[Профиль]  [ЛС] 
Показать сообщения:    
Ответить на тему

Текущее время: Сегодня 20:04

Часовой пояс: GMT + 4



Вы не можете начинать темы
Вы не можете отвечать на сообщения
Вы не можете редактировать свои сообщения
Вы не можете удалять свои сообщения
Вы не можете голосовать в опросах
Вы не можете прикреплять файлы к сообщениям
Вы не можете скачивать файлы