VA - Ээхх, разгуляй! - часть 1 - 2009, (Шансон), FLAC (image+.cue), lossless

Ответить на тему
 
Автор
Сообщение

Admiral ®

Пол:

Стаж: 4 года 10 месяцев

Сообщений: 594

Репутация: 136 [+] [-]

Пост 10-Июл-2014 16:46

[Цитировать] 

--Various Artists - Ээхх, разгуляй! часть 1-- Жанр: Шансон
Страна-производитель диска: Россия
Год издания: 2009
Издатель (лейбл): КВАДРО-ДИСК
Аудиокодек: FLAC (*.flac)
Тип рипа: image+.cue
Битрейт аудио: lossless
Продолжительность:01:09:33
Наличие сканов в содержимом раздачи: да


01. Виктор Королев и Ирина Круг -- Букет белых роз (4:01)
02. Михаил Шуфутинский и Любовь Успенская -- Люба, Любонька (3:29)
03. Стас Михайлов -- Где ты (3:23)
04. Сергей Трофимов -- Город в пробках (3:19)
05. Рада Рай -- Ты не стой на моем пути (3:26)
06. группа Дюна -- Привет с большого бодуна (2:13)
07. Надежда Кадышева и 'Золотое кольцо' -- Течет ручей (2:02)
08. Воровайки -- Девчонка рыжая (3:18)
09. Братья Шахунц -- Голубка (3:19)
10. Елена Ваенга -- Абсент (3:16)
11. Андрей Бандера -- Любимая (3:32)
12. Жека -- Мегамикс (Я, как осенний лист, Синеглазые озера, Плавно падает снег) (4:59)
13. Вилли Токарев -- Небоскребы (3:12)
14. Виктор Королев -- А поезд, чух-чух (3:39)
15. группа Лесоповал -- Птичий рынок (5:04)
16. Михаил Боярский -- Сяду в скорый поезд (2:31)
17. Долина -- Mr. Credo (5:12)
18. Михаил Шуфутинский -- Островок (3:05)
19. Гарик Кричевский -- Первая любовь (3:08)
20. Иван Кучин -- Пой, гитара (3:26)

Отчёт EAC

Exact Audio Copy V1.0 beta 1 from 15. November 2010
Отчёт EAC об извлечении, выполненном 19. октября 2011, 21:25
Various / Ээхх, разгуляй! часть 1
Дисковод: Optiarc DVD RW AD-7260S Adapter: 1 ID: 0
Режим чтения : Достоверность
Использование точного потока : Да
Отключение кэша аудио : Да
Использование указателей C2 : Нет
Коррекция смещения при чтении : 48
Способность читать области Lead-in и Lead-out : Нет
Заполнение пропущенных сэмплов тишиной : Да
Удаление блоков с тишиной в начале и конце : Нет
При вычислениях CRC использовались нулевые сэмплы : Да
Интерфейс : Встроенный Win32-интерфейс для Win NT/2000
Выходной формат : Внутренние WAV-операции
Формат сэмплов : 44.100 Гц; 16 бит; стерео
TOC извлечённого CD
Трек | Старт | Длительность | Начальный сектор | Конечный сектор
---------------------------------------------------------------------
1 | 0:00.00 | 4:00.66 | 0 | 18065
2 | 4:00.66 | 3:29.30 | 18066 | 33770
3 | 7:30.21 | 3:22.68 | 33771 | 48988
4 | 10:53.14 | 3:18.67 | 48989 | 63905
5 | 14:12.06 | 3:25.58 | 63906 | 79338
6 | 17:37.64 | 2:12.55 | 79339 | 89293
7 | 19:50.44 | 2:01.41 | 89294 | 98409
8 | 21:52.10 | 3:18.10 | 98410 | 113269
9 | 25:10.20 | 3:19.20 | 113270 | 128214
10 | 28:29.40 | 3:16.14 | 128215 | 142928
11 | 31:45.54 | 3:32.07 | 142929 | 158835
12 | 35:17.61 | 4:58.40 | 158836 | 181225
13 | 40:16.26 | 3:11.66 | 181226 | 195616
14 | 43:28.17 | 3:38.42 | 195617 | 212008
15 | 47:06.59 | 5:04.00 | 212009 | 234808
16 | 52:10.59 | 2:31.04 | 234809 | 246137
17 | 54:41.63 | 5:12.01 | 246138 | 269538
18 | 59:53.64 | 3:04.68 | 269539 | 283406
19 | 62:58.57 | 3:07.44 | 283407 | 297475
20 | 66:06.26 | 3:26.22 | 297476 | 312947
Характеристики диапазона извлечения и сообщения об ошибках
Выбранный диапазон
Имя файла C:\Users\Анатолий\Desktop\Музыка\VA Ээхх, разгуляй! - часть 1\Various - Ээхх, разгуляй! часть 1.wav
Пиковый уровень 97.7 %
0.2 X
Качество диапазона 100.0 %
CRC теста A673D9EC
CRC копии A673D9EC
Копирование... OK
Ошибок не произошло
AccurateRip: сводка
Трек 1 нет в базе данных
Трек 2 нет в базе данных
Трек 3 нет в базе данных
Трек 4 нет в базе данных
Трек 5 нет в базе данных
Трек 6 нет в базе данных
Трек 7 нет в базе данных
Трек 8 нет в базе данных
Трек 9 нет в базе данных
Трек 10 нет в базе данных
Трек 11 нет в базе данных
Трек 12 нет в базе данных
Трек 13 нет в базе данных
Трек 14 нет в базе данных
Трек 15 нет в базе данных
Трек 16 нет в базе данных
Трек 17 нет в базе данных
Трек 18 нет в базе данных
Трек 19 нет в базе данных
Трек 20 нет в базе данных
Ни одного трека нет в базе AccurateRip
Конец отчёта
==== 9B0F1FE1FE7EDC5451CC98BE98F711680DA448D3763E10E2EFD23C5018DD2F96 ====

[Торрент-статистика]
[Профиль]  [ЛС] 
Показать сообщения:    
Ответить на тему

Текущее время: Сегодня 20:57

Часовой пояс: GMT + 4



Вы не можете начинать темы
Вы не можете отвечать на сообщения
Вы не можете редактировать свои сообщения
Вы не можете удалять свои сообщения
Вы не можете голосовать в опросах
Вы не можете прикреплять файлы к сообщениям
Вы не можете скачивать файлы