группа Экспресс (гурт Експрес) - Забойный хит - 2011, (Шансон), (image+.cue), lossless

Ответить на тему
 
Автор
Сообщение

Admiral ®

Пол:

Стаж: 4 года 10 месяцев

Сообщений: 594

Репутация: 136 [+] [-]

Пост 18-Май-2014 08:44

[Цитировать] 

--группа Экспресс (гурт Експрес) - Забойный хит-- Жанр: шансон
Страна-производитель диска:Украина
Год издания: 2011
Издатель (лейбл): Витряк рекордс
Номер по каталогу: VR-65K-11
Аудиокодек: FLAC (*.flac)
Тип рипа: image+.cue
Битрейт аудио: lossless
Продолжительность: 00:55:34
Наличие сканов в содержимом раздачи: да

[03:46] 01. Галочка
[03:26] 02. Смерека
[03:26] 03. Частушки
[02:59] 04. Чё те надо?
[03:42] 05. Письмо
[03:19] 06. Иванэ, Иванэ
[02:54] 07. Сероглазая шалунья.
[03:27] 08. Их хоб дих цу фил либ
[03:18] 09. Колокольчики
[03:45] 10. Тюльпан на ландыш не похож
[03:15] 11. Кое-что еще
[05:11] 12. Девушка с оленьими глазами
[03:20] 13. Кутерьма
[03:09] 14. Светлана
[03:11] 15. Мурка
[03:50] 16. Эх, Андрюша

Отчёт EAC

Exact Audio Copy V1.0 beta 3 from 29. August 2011
Отчёт EAC об извлечении, выполненном 12. июля 2012, 23:48
Гурт "Експрес" / Забойный хит
Дисковод: TSSTcorpCDDVDW TS-L633J Adapter: 0 ID: 1
Режим чтения : Достоверность
Использование точного потока : Да
Отключение кэша аудио : Да
Использование указателей C2 : Нет
Коррекция смещения при чтении : 6
Способность читать области Lead-in и Lead-out : Нет
Заполнение пропущенных сэмплов тишиной : Да
Удаление блоков с тишиной в начале и конце : Нет
При вычислениях CRC использовались нулевые сэмплы : Да
Интерфейс : Встроенный Win32-интерфейс для Win NT/2000
Выходной формат : Пользовательский кодировщик
Выбранный битрейт : 1024 kBit/s
Качество : Высокий
Добавление ID3-тега : Нет
Утилита сжатия : C:\Program Files (x86)\Exact Audio Copy\FLAC\FLAC.EXE
Дополнительные параметры : -8 -V -T "ARTIST=%artist%" -T "TITLE=%title%" -T "ALBUM=%albumtitle%" -T "DATE=%year%" -T "TRACKNUMBER=%tracknr%" -T "GENRE=%genre%" -T "COMMENT=%comment%" -T "BAND=%albuminterpret%" -T "ALBUMARTIST=%albuminterpret%" -T "COMPOSER=%composer%" %haslyrics%--tag-from-file=LYRICS="%lyricsfile%"%haslyrics% -T "DISCNUMBER=%cdnumber%" -T "TOTALDISCS=%totalcds%" -T "TOTALTRACKS=%numtracks%" %hascover%--picture="%coverfile%"%hascover% %source% -o %dest%
TOC извлечённого CD
Трек | Старт | Длительность | Начальный сектор | Конечный сектор
---------------------------------------------------------------------
1 | 0:00.00 | 3:48.22 | 0 | 17121
2 | 3:48.22 | 3:26.56 | 17122 | 32627
3 | 7:15.03 | 3:26.00 | 32628 | 48077
4 | 10:41.03 | 2:59.23 | 48078 | 61525
5 | 13:40.26 | 3:42.52 | 61526 | 78227
6 | 17:23.03 | 3:19.08 | 78228 | 93160
7 | 20:42.11 | 2:54.12 | 93161 | 106222
8 | 23:36.23 | 3:27.53 | 106223 | 121800
9 | 27:04.01 | 3:18.30 | 121801 | 136680
10 | 30:22.31 | 3:45.19 | 136681 | 153574
11 | 34:07.50 | 3:15.22 | 153575 | 168221
12 | 37:22.72 | 5:11.38 | 168222 | 191584
13 | 42:34.35 | 3:20.69 | 191585 | 206653
14 | 45:55.29 | 3:09.23 | 206654 | 220851
15 | 49:04.52 | 3:11.66 | 220852 | 235242
16 | 52:16.43 | 3:48.31 | 235243 | 252373
Характеристики диапазона извлечения и сообщения об ошибках
Выбранный диапазон
Имя файла D:\Гурт Експрес - Забойный хит\Гурт ''Експрес'' - Забойный хит.wav
Пиковый уровень 100.0 %
Скорость извлечения 2.7 X
Качество диапазона 100.0 %
CRC теста 8A98E005
CRC копии 8A98E005
Копирование... OK
Ошибок не произошло
AccurateRip: сводка
Трек 1 отсутствует в базе данных
Трек 2 отсутствует в базе данных
Трек 3 отсутствует в базе данных
Трек 4 отсутствует в базе данных
Трек 5 отсутствует в базе данных
Трек 6 отсутствует в базе данных
Трек 7 отсутствует в базе данных
Трек 8 отсутствует в базе данных
Трек 9 отсутствует в базе данных
Трек 10 отсутствует в базе данных
Трек 11 отсутствует в базе данных
Трек 12 отсутствует в базе данных
Трек 13 отсутствует в базе данных
Трек 14 отсутствует в базе данных
Трек 15 отсутствует в базе данных
Трек 16 отсутствует в базе данных
Ни одного трека нет в базе AccurateRip
Конец отчёта
[Торрент-статистика]
[Профиль]  [ЛС] 
Показать сообщения:    
Ответить на тему

Текущее время: Сегодня 19:35

Часовой пояс: GMT + 4



Вы не можете начинать темы
Вы не можете отвечать на сообщения
Вы не можете редактировать свои сообщения
Вы не можете удалять свои сообщения
Вы не можете голосовать в опросах
Вы не можете прикреплять файлы к сообщениям
Вы не можете скачивать файлы