Катя Огонёк - Белая тайга - 2 (Первопресс CD) - 1999, (Шансон), FLAC (image+.cue), lossless

Ответить на тему
 
Автор
Сообщение

Admiral ®

Пол:

Стаж: 4 года 10 месяцев

Сообщений: 594

Репутация: 136 [+] [-]

Пост 21-Апр-2014 09:16

[Цитировать] 

--Катя Огонёк - Белая тайга - 2 (Первопресс CD)-- Жанр: Шансон
Страна-производитель диска: Россия
Год издания: 1999
Издатель (лейбл): Союз Продакшн
Номер по каталогу: SZCD 1132-99
Аудиокодек: FLAC (*.flac)
Тип рипа: image+.cue
Битрейт аудио: lossless
Продолжительность: 00:44:11
Наличие сканов в содержимом раздачи: да (600 DPI)
Треклист:


01. В северную ночь
02. Глупенький
03. Напиши...
04. Прощай, Сережка!
05. Подруженька
06. Одинокое лето
07. Бычок
08. Запонка
09. Заболела душа
10. Я вернусь к тебе, мама
11. Белая тайга

Отчёт EAC

Exact Audio Copy V1.0 beta 3 from 29. August 2011
Отчёт EAC об извлечении, выполненном 4. мая 2013, 22:01
Катя Огонёк / Белая тайга - 2
Дисковод: ASUS DRW-22B3S Adapter: 0 ID: 1
Режим чтения : Достоверность
Использование точного потока : Да
Отключение кэша аудио : Да
Использование указателей C2 : Нет
Коррекция смещения при чтении : 6
Способность читать области Lead-in и Lead-out : Нет
Заполнение пропущенных сэмплов тишиной : Да
Удаление блоков с тишиной в начале и конце : Нет
При вычислениях CRC использовались нулевые сэмплы : Да
Интерфейс : Встроенный Win32-интерфейс для Win NT/2000
Выходной формат : Внутренние WAV-операции
Формат сэмплов : 44.100 Гц; 16 бит; стерео
TOC извлечённого CD
Трек | Старт | Длительность | Начальный сектор | Конечный сектор
---------------------------------------------------------------------
1 | 0:00.00 | 4:21.43 | 0 | 19617
2 | 4:21.43 | 3:26.13 | 19618 | 35080
3 | 7:47.56 | 3:43.34 | 35081 | 51839
4 | 11:31.15 | 3:57.41 | 51840 | 69655
5 | 15:28.56 | 3:41.67 | 69656 | 86297
6 | 19:10.48 | 4:22.04 | 86298 | 105951
7 | 23:32.52 | 4:37.40 | 105952 | 126766
8 | 28:10.17 | 2:52.35 | 126767 | 139701
9 | 31:02.52 | 3:22.45 | 139702 | 154896
10 | 34:25.22 | 4:58.26 | 154897 | 177272
11 | 39:23.48 | 4:47.34 | 177273 | 198831
Характеристики диапазона извлечения и сообщения об ошибках
Выбранный диапазон
Имя файла C:\Шансон\Катя Огонёк - Дискография\1999 - Катя Огонёк - Белая тайга - 2\Катя Огонёк - Белая тайга - 2.wav
Пиковый уровень 100.0 %
Скорость извлечения 5.8 X
Качество диапазона 100.0 %
CRC теста 28F0BC12
CRC копии 28F0BC12
Копирование... OK
Ошибок не произошло
Конец отчёта
==== Контрольная сумма отчёта A9A5801F13C2CC2E3DB842DCEADCDED794916C6AA0F9DCAE6B7D4FE4540DF30D ====

[Торрент-статистика]
[Профиль]  [ЛС] 
Показать сообщения:    
Ответить на тему

Текущее время: Сегодня 19:49

Часовой пояс: GMT + 4



Вы не можете начинать темы
Вы не можете отвечать на сообщения
Вы не можете редактировать свои сообщения
Вы не можете удалять свои сообщения
Вы не можете голосовать в опросах
Вы не можете прикреплять файлы к сообщениям
Вы не можете скачивать файлы