Вилли Токарев - Летят перелетные птицы - 1994, (Шансон), FLAC (image+.cue), lossless

Ответить на тему
 
Автор
Сообщение

Admiral ®

Пол:

Стаж: 4 года 10 месяцев

Сообщений: 594

Репутация: 136 [+] [-]

Пост 21-Апр-2014 08:59

[Цитировать] 

--Вилли Токарев - Летят перелетные птицы-- Жанр: Шансон
Страна-производитель диска: Австрия
Год издания: 1996
Издатель (лейбл): RCD
Номер по каталогу: RCD21018
Аудиокодек: FLAC (*.flac)
Тип рипа: image+.cue
Битрейт аудио: lossless
Продолжительность: 00:33:52
Наличие сканов в содержимом раздачи: да (600 DPI)
Треклист:


01. Летят перелетные птицы
02. А где мне взять такую песню
03. Темная ночь
04. Зимний вечер
05. Осень
06. Ты не бойся меня уркагана
07. Я тут в Америке

Отчёт EAC

Exact Audio Copy V1.0 beta 3 from 29. August 2011
Отчёт EAC об извлечении, выполненном 1. мая 2013, 23:45
Вилли Токарев / Летят перелетные птицы
Дисковод: ASUS DRW-22B3S Adapter: 0 ID: 1
Режим чтения : Достоверность
Использование точного потока : Да
Отключение кэша аудио : Да
Использование указателей C2 : Нет
Коррекция смещения при чтении : 6
Способность читать области Lead-in и Lead-out : Нет
Заполнение пропущенных сэмплов тишиной : Да
Удаление блоков с тишиной в начале и конце : Нет
При вычислениях CRC использовались нулевые сэмплы : Да
Интерфейс : Встроенный Win32-интерфейс для Win NT/2000
Выходной формат : Внутренние WAV-операции
Формат сэмплов : 44.100 Гц; 16 бит; стерео
TOC извлечённого CD
Трек | Старт | Длительность | Начальный сектор | Конечный сектор
---------------------------------------------------------------------
1 | 0:00.30 | 6:39.49 | 30 | 30003
2 | 6:40.04 | 3:54.61 | 30004 | 47614
3 | 10:34.65 | 3:44.34 | 47615 | 64448
4 | 14:19.24 | 4:24.17 | 64449 | 84265
5 | 18:43.41 | 5:49.23 | 84266 | 110463
6 | 24:32.64 | 4:30.63 | 110464 | 130776
7 | 29:03.52 | 4:48.51 | 130777 | 152427
Характеристики диапазона извлечения и сообщения об ошибках
Выбранный диапазон
Имя файла C:\Шансон\Вилли Токарев - Дискография\1994 - Вилли Токарев - Летят перелетные птицы\Вилли Токарев - Летят перелетные птицы.wav
Пиковый уровень 98.8 %
Скорость извлечения 5.5 X
Качество диапазона 100.0 %
CRC теста 0723DD5E
CRC копии 0723DD5E
Копирование... OK
Ошибок не произошло
Конец отчёта
==== Контрольная сумма отчёта 93E5DFA54D6E5309658BC0CE1085BF196424A79B1A5A24D60B73753EA8C3D9FE ====

[Торрент-статистика]
[Профиль]  [ЛС] 
Показать сообщения:    
Ответить на тему

Текущее время: Сегодня 19:34

Часовой пояс: GMT + 4



Вы не можете начинать темы
Вы не можете отвечать на сообщения
Вы не можете редактировать свои сообщения
Вы не можете удалять свои сообщения
Вы не можете голосовать в опросах
Вы не можете прикреплять файлы к сообщениям
Вы не можете скачивать файлы