Вилли Токарев - Брызги шампанского - 1994, (Шансон), FLAC (image+.cue), lossless

Ответить на тему
 
Автор
Сообщение

Admiral ®

Пол:

Стаж: 4 года 10 месяцев

Сообщений: 594

Репутация: 136 [+] [-]

Пост 21-Апр-2014 08:58

[Цитировать] 

--Вилли Токарев - Брызги шампанского-- Жанр: Шансон
Страна-производитель диска: Австрия
Год издания: 1996
Издатель (лейбл): RCD
Номер по каталогу: RCD 21015
Аудиокодек: FLAC (*.flac)
Тип рипа: image+.cue
Битрейт аудио: lossless
Продолжительность: 00:40:51
Наличие сканов в содержимом раздачи: да (600 DPI)
Треклист:


01. Брызги шампанского
02. Водочка
03. Зашли в кабак
04. Жизнь дорожает
05. Письмо из зоны
06. Ты прости, Господь
07. Бродяга
08. Друзья
09. Ах, юность!
10. За колючей проволокой

Отчёт EAC

Exact Audio Copy V1.0 beta 3 from 29. August 2011
Отчёт EAC об извлечении, выполненном 29. апреля 2013, 23:32
Вилли Токарев / Брызги шампанского
Дисковод: ASUS DRW-22B3S Adapter: 0 ID: 1
Режим чтения : Достоверность
Использование точного потока : Да
Отключение кэша аудио : Да
Использование указателей C2 : Нет
Коррекция смещения при чтении : 6
Способность читать области Lead-in и Lead-out : Нет
Заполнение пропущенных сэмплов тишиной : Да
Удаление блоков с тишиной в начале и конце : Нет
При вычислениях CRC использовались нулевые сэмплы : Да
Интерфейс : Встроенный Win32-интерфейс для Win NT/2000
Выходной формат : Внутренние WAV-операции
Формат сэмплов : 44.100 Гц; 16 бит; стерео
TOC извлечённого CD
Трек | Старт | Длительность | Начальный сектор | Конечный сектор
---------------------------------------------------------------------
1 | 0:00.30 | 3:22.70 | 30 | 15249
2 | 3:23.25 | 3:03.45 | 15250 | 29019
3 | 6:26.70 | 3:52.55 | 29020 | 46474
4 | 10:19.50 | 4:11.63 | 46475 | 65362
5 | 14:31.38 | 4:32.36 | 65363 | 85798
6 | 19:03.74 | 4:53.60 | 85799 | 107833
7 | 23:57.59 | 2:32.33 | 107834 | 119266
8 | 26:30.17 | 3:42.67 | 119267 | 135983
9 | 30:13.09 | 3:16.18 | 135984 | 150701
10 | 33:29.27 | 7:22.42 | 150702 | 183893
Характеристики диапазона извлечения и сообщения об ошибках
Выбранный диапазон
Имя файла C:\Шансон\Вилли Токарев - Дискография\1994 - Вилли Токарев - Брызги шампанского\Вилли Токарев - Брызги шампанского.wav
Пиковый уровень 98.8 %
Скорость извлечения 5.7 X
Качество диапазона 100.0 %
CRC теста 4A3B8D76
CRC копии 4A3B8D76
Копирование... OK
Ошибок не произошло
Конец отчёта
==== Контрольная сумма отчёта 7D7C83922E8C23646F497E5AD4FBA4FF96B89E9A94CDA93DF7A30BCB6F7727C3 ====

[Торрент-статистика]
[Профиль]  [ЛС] 
Показать сообщения:    
Ответить на тему

Текущее время: Сегодня 20:10

Часовой пояс: GMT + 4



Вы не можете начинать темы
Вы не можете отвечать на сообщения
Вы не можете редактировать свои сообщения
Вы не можете удалять свои сообщения
Вы не можете голосовать в опросах
Вы не можете прикреплять файлы к сообщениям
Вы не можете скачивать файлы