Cтас Mихайлов - Свеча (Первопресс CD) - 1997, (Шансон), FLAC (image+.cue), lossless

Ответить на тему
 
Автор
Сообщение

Admiral ®

Пол:

Стаж: 4 года 10 месяцев

Сообщений: 594

Репутация: 136 [+] [-]

Пост 18-Апр-2014 20:53

[Цитировать] 

--Стас Михайлов - Свеча (Первопресс CD)-- Жанр: Шансон
Страна-производитель диска: Россия
Год издания: 1997
Издатель (лейбл): AZART records
Номер по каталогу: A-00001
Аудиокодек: FLAC (*.flac)
Тип рипа: image+.cue
Битрейт аудио: lossless
Продолжительность: 00:45:53
Наличие сканов в содержимом раздачи: да (600 DPI)
Треклист:

01. Темные глаза
02. Сказочный мир
03. Свеча
04. Мы разные
05. Осеннее расставание
06. Приди ко мне
07. Разлука
08. Верую...
09. Мираж
10. Опять один
11. Ты меня не отпускай
12. Я скажу с небес

Отчёт EAC

Exact Audio Copy V1.0 beta 2 from 29. April 2011
Отчёт EAC об извлечении, выполненном 9. февраля 2013, 19:28
Стас Михайлов / Свеча
Дисковод: ASUS DRW-1608P3S Adapter: 0 ID: 3
Режим чтения : Достоверность
Использование точного потока : Да
Отключение кэша аудио : Да
Использование указателей C2 : Нет
Коррекция смещения при чтении : 48
Способность читать области Lead-in и Lead-out : Нет
Заполнение пропущенных сэмплов тишиной : Да
Удаление блоков с тишиной в начале и конце : Нет
При вычислениях CRC использовались нулевые сэмплы : Да
Интерфейс : Встроенный Win32-интерфейс для Win NT/2000
Выходной формат : Внутренние WAV-операции
Формат сэмплов : 44.100 Гц; 16 бит; стерео
TOC извлечённого CD
Трек | Старт | Длительность | Начальный сектор | Конечный сектор
---------------------------------------------------------------------
1 | 0:00.15 | 3:58.25 | 15 | 17889
2 | 3:58.40 | 3:09.70 | 17890 | 32134
3 | 7:08.35 | 4:37.10 | 32135 | 52919
4 | 11:45.45 | 4:30.50 | 52920 | 73219
5 | 16:16.20 | 3:22.42 | 73220 | 88411
6 | 19:38.62 | 4:20.55 | 88412 | 107966
7 | 23:59.42 | 3:56.23 | 107967 | 125689
8 | 27:55.65 | 4:13.52 | 125690 | 144716
9 | 32:09.42 | 2:55.25 | 144717 | 157866
10 | 35:04.67 | 2:59.43 | 157867 | 171334
11 | 38:04.35 | 3:02.22 | 171335 | 185006
12 | 41:06.57 | 4:46.63 | 185007 | 206519
Характеристики диапазона извлечения и сообщения об ошибках
Выбранный диапазон
Имя файла C:\Шансон\Стас Михайлов - Дискография\1997 - Стас Михайлов - Свеча\Стас Михайлов - Свеча.wav
Пиковый уровень 98.0 %
Скорость извлечения 5.7 X
Качество диапазона 99.9 %
CRC теста 9095311D
CRC копии 9095311D
Копирование... OK
Ошибок не произошло
Конец отчёта
==== Контрольная сумма отчёта A843307C92C1740D0759B6801CE759DA9EEBE66FCE6004B10E68AF48CFF9B519 ====
[Торрент-статистика]
[Профиль]  [ЛС] 
Показать сообщения:    
Ответить на тему

Текущее время: Сегодня 19:54

Часовой пояс: GMT + 4



Вы не можете начинать темы
Вы не можете отвечать на сообщения
Вы не можете редактировать свои сообщения
Вы не можете удалять свои сообщения
Вы не можете голосовать в опросах
Вы не можете прикреплять файлы к сообщениям
Вы не можете скачивать файлы