Леонид Портной - Кто тебя создал такую - 2008, (Шансон), FLAC (image+.cue), lossless

Ответить на тему
 
Автор
Сообщение

Admiral ®

Пол:

Стаж: 4 года 8 месяцев

Сообщений: 593

Репутация: 136 [+] [-]

Пост 13-Апр-2014 11:03

[Цитировать] 

--Леонид Портной - Кто тебя создал такую-- Жанр: Шансон
Год выпуска диска: 2008
Производитель диска: (C)&(P) "Artur-Music,
Россия - Питленд, Квадро-EXL08-469

Аудио кодек: FLAC
Тип рипа: image+.cue
Битрейт аудио: lossless
Продолжительность: 01:00:02
Трэклист:

01. Кто тебя создал такую (3:52)
02. Холодная Москва (3:54)
03. Твой (3:47)
04. Скрипка (4:47)
05. Старый друг (3:52)
06. Сын и дочь (4:22)
07. Случайная ночь (3:57)
08. Давай разойдемся (4:52)
09. Симфония (5:16)
10. Кто виноват (4:46)
11. Незнакомка (4:20)
12. Будь со мной (4:12)
13. Лепестки (4:35)
14. Жизнь идет (3:31)
Бонус: видеоклипы

1.Давай разойдемся

Информация по видео

Format : AVI
File size : 55.0 MiB
Overall bit rate : 1 614 Kbps
Video
Format : MPEG-4 Visual
Bit rate : 1 409 Kbps
Width : 720 pixels
Height : 576 pixels
Frame rate : 25.000 fps
Standard : PAL
Resolution : 24 bits
Colorimetry : 4:2:0
Scan type : Progressive
Audio
Format : MPEG Audio
Format profile : Layer 3
Bit rate : 192 Kbps
Channel(s) : 2 channels
Sampling rate : 44.1 KHz
Resolution : 16 bits
Stream size : 6.54 MiB (12%)

Скриншоты

2.Старый друг мой

Информация по видео


Format : AVI
File size : 46.5 MiB
Overall bit rate : 1 614 Kbps
Video
Format : MPEG-4 Visual
Bit rate : 1 409 Kbps
Width : 720 pixels
Height : 576 pixels
Frame rate : 25.000 fps
Standard : PAL
Scan type : Progressive
Audio
Format : MPEG Audio
Format profile : Layer 3
Bit rate : 192 Kbps
Channel(s) : 2 channels
Sampling rate : 44.1 KHz
Resolution : 16 bits
Stream size : 5.53 MiB (12%)

Скриншоты

3.Сын и дочь

Информация по видео


Format : AVI
File size : 49.6 MiB
Overall bit rate : 1 620 Kbps
Video
Format : MPEG-4 Visual
Bit rate : 1 415 Kbps
Width : 720 pixels
Height : 576 pixels
Frame rate : 25.000 fps
Standard : PAL
Resolution : 24 bits
Colorimetry : 4:2:0
Scan type : Progressive
Audio
Format : MPEG Audio
Format profile : Layer 3
Bit rate : 192 Kbps
Channel(s) : 2 channels
Sampling rate : 44.1 KHz
Resolution : 16 bits
Stream size : 5.88 MiB (12%)

Скриншоты

Отчёт ЕАС

Exact Audio Copy V0.99 prebeta 5 from 4. May 2009
Отчёт EAC об извлечении, выполненном 13. мая 2010, 23:59
Леонид Портной / Кто тебя создал такую
Дисковод: ASUS DRW-1814BLT Adapter: 2 ID: 0
Режим чтения : Достоверность
Использование точного потока : Да
Отключение кэша аудио : Да
Использование указателей C2 : Нет
Коррекция смещения при чтении : 6
Способность читать области Lead-in и Lead-out : Нет
Заполнение пропущенных сэмплов тишиной : Да
Удаление блоков с тишиной в начале и конце : Нет
При вычислениях CRC использовались нулевые сэмплы : Да
Интерфейс : Встроенный Win32-интерфейс для Win NT/2000
Выходной формат : Внутренние WAV-операции
Формат сэмплов : 44.100 Гц; 16 бит; стерео
TOC извлечённого CD
Трек | Старт | Длительность | Начальный сектор | Конечный сектор
---------------------------------------------------------------------
1 | 0:00.00 | 3:51.53 | 0 | 17377
2 | 3:51.53 | 3:54.23 | 17378 | 34950
3 | 7:46.01 | 3:46.63 | 34951 | 51963
4 | 11:32.64 | 4:46.49 | 51964 | 73462
5 | 16:19.38 | 3:52.24 | 73463 | 90886
6 | 20:11.62 | 4:22.10 | 90887 | 110546
7 | 24:33.72 | 3:56.47 | 110547 | 128293
8 | 28:30.44 | 4:51.43 | 128294 | 150161
9 | 33:22.12 | 5:15.54 | 150162 | 173840
10 | 38:37.66 | 4:45.47 | 173841 | 195262
11 | 43:23.38 | 4:20.27 | 195263 | 214789
12 | 47:43.65 | 4:11.71 | 214790 | 233685
13 | 51:55.61 | 4:35.04 | 233686 | 254314
14 | 56:30.65 | 3:31.31 | 254315 | 270170
15 | 62:34.21 | 17:14.64 | 281571 | 359184
Характеристики диапазона извлечения и сообщения об ошибках
Выбранный диапазон
Имя файла C:\Lossless\Леонид Портной - Кто тебя создал такую\Леонид Портной - Кто тебя создал такую.wav
Пиковый уровень 97.7 %
Качество диапазона 100.0 %
CRC теста 0291E382
CRC копии 0291E382
Копирование... OK
Ошибок не произошло
AccurateRip: сводка
Трек 1 нет в базе данных
Трек 2 нет в базе данных
Трек 3 нет в базе данных
Трек 4 нет в базе данных
Трек 5 нет в базе данных
Трек 6 нет в базе данных
Трек 7 нет в базе данных
Трек 8 нет в базе данных
Трек 9 нет в базе данных
Трек 10 нет в базе данных
Трек 11 нет в базе данных
Трек 12 нет в базе данных
Трек 13 нет в базе данных
Трек 14 нет в базе данных
Ни одного трека нет в базе AccurateRip
Конец отчёта
[Торрент-статистика]
[Профиль]  [ЛС] 
Показать сообщения:    
Ответить на тему

Текущее время: Сегодня 20:40

Часовой пояс: GMT + 4



Вы не можете начинать темы
Вы не можете отвечать на сообщения
Вы не можете редактировать свои сообщения
Вы не можете удалять свои сообщения
Вы не можете голосовать в опросах
Вы не можете прикреплять файлы к сообщениям
Вы не можете скачивать файлы