VA - Radio Новинки Шансона 2011 - 2011,(Шансон), FLAC (image+.cue), lossless

Ответить на тему
 
Автор
Сообщение

Admiral ®

Пол:

Стаж: 4 года 8 месяцев

Сообщений: 593

Репутация: 136 [+] [-]

Пост 26-Фев-2014 11:29

[Цитировать] 

Various - Radio Новинки Шансона 2011-- Жанр: Шансон
Страна-производитель диска: Украина
Год издания диска: 2011
Издатель (лейбл): Astra
Номер по каталогу: Astra 332992
Аудиокодек: FLAC (*.flac)
Тип рипа: image+.cue
Битрейт аудио: lossless
Продолжительность: 01:10:11
Наличие сканов в содержимом раздачи: да-
-
01. Ирина Круг - Перелетная птица [ 04:07 ]
02. Бумер - Не плачь [ 04:38 ]
03. Александр Дюмин - Роза [ 03:36 ]
04. Артур - Забыть нельзя [ 03:36 ]
05. Афина - Душа кричит [ 03:45 ]
06. Анатолий Полотно & Федя Карманов - Не жалей [ 03:42 ]
07. Сергей Любавин - Украду тебя [ 03:44 ]
08. Жека - Когда не нужно лишних слов [ 04:04 ]
09. Стас Белый - Клава [ 03:31 ]
10. Бумер - Вино-кокаин [ 04:42 ]
11. Воровайки - Я буду ждать весну (новая версия) [ 04:03 ]
12. Александр Вестов - Жизнь-монета [ 04:08 ]
13. Геннадий Жаров & Светлана Питерская - Таежная [ 04:11 ]
14. Александр Юрпалов - Улыбнись вспоминая [ 03:30 ]
15. Эдуард Видный - Я тебе подарю [ 03:17 ]
16. Сергей Любавин & Татьяна Буланова - Цветок [ 03:52 ]
17. Катюша - Ключи от счастья [ 04:51 ]
18. Ильдар Южный - Будьте счастливы
[ 02:44 ]

Отчёт EAC

Exact Audio Copy V1.0 beta 1 from 15. November 2010
Отчёт EAC об извлечении, выполненном 14. августа 2011, 15:55
Various / Radio Новинки Шансона 2011
Дисковод: ASUS DRW-24B3ST Adapter: 0 ID: 1
Режим чтения : Достоверность
Использование точного потока : Да
Отключение кэша аудио : Да
Использование указателей C2 : Нет
Коррекция смещения при чтении : 6
Способность читать области Lead-in и Lead-out : Нет
Заполнение пропущенных сэмплов тишиной : Да
Удаление блоков с тишиной в начале и конце : Нет
При вычислениях CRC использовались нулевые сэмплы : Да
Интерфейс : Установленный внешний ASPI-интерфейс
Выходной формат : Пользовательский кодировщик
Выбранный битрейт : 768 kBit/s
Качество : Высокий
Добавление ID3-тэга : Нет
Утилита сжатия : C:\Program Files\Exact Audio Copy\Flac\flac.exe
Дополнительные параметры : -T "DATE=%y" -T "GENRE=%m" -8 -V %s
TOC извлечённого CD
Трек | Старт | Длительность | Начальный сектор | Конечный сектор
---------------------------------------------------------------------
1 | 0:00.00 | 4:07.62 | 0 | 18586
2 | 4:07.62 | 4:38.35 | 18587 | 39471
3 | 8:46.22 | 3:36.50 | 39472 | 55721
4 | 12:22.72 | 3:36.55 | 55722 | 71976
5 | 15:59.52 | 3:45.73 | 71977 | 88924
6 | 19:45.50 | 3:42.71 | 88925 | 105645
7 | 23:28.46 | 3:44.48 | 105646 | 122493
8 | 27:13.19 | 4:04.09 | 122494 | 140802
9 | 31:17.28 | 3:31.64 | 140803 | 156691
10 | 34:49.17 | 4:42.24 | 156692 | 177865
11 | 39:31.41 | 4:03.18 | 177866 | 196108
12 | 43:34.59 | 4:08.10 | 196109 | 214718
13 | 47:42.69 | 4:11.11 | 214719 | 233554
14 | 51:54.05 | 3:30.50 | 233555 | 249354
15 | 55:24.55 | 3:17.51 | 249355 | 264180
16 | 58:42.31 | 3:52.08 | 264181 | 281588
17 | 62:34.39 | 4:51.71 | 281589 | 303484
18 | 67:26.35 | 2:44.43 | 303485 | 315827
Характеристики диапазона извлечения и сообщения об ошибках
Выбранный диапазон
Имя файла D:\Winamp\Various - Radio Новинки Шансона 2011.wav
Пиковый уровень 97.0 %
0.2 X
Качество диапазона 100.0 %
CRC теста 5AEDF20D
CRC копии 5AEDF20D
Копирование... OK
Ошибок не произошло
AccurateRip: сводка
Трек 1 нет в базе данных
Трек 2 нет в базе данных
Трек 3 нет в базе данных
Трек 4 нет в базе данных
Трек 5 нет в базе данных
Трек 6 нет в базе данных
Трек 7 нет в базе данных
Трек 8 нет в базе данных
Трек 9 нет в базе данных
Трек 10 нет в базе данных
Трек 11 нет в базе данных
Трек 12 нет в базе данных
Трек 13 нет в базе данных
Трек 14 нет в базе данных
Трек 15 нет в базе данных
Трек 16 нет в базе данных
Трек 17 нет в базе данных
Трек 18 нет в базе данных
Ни одного трека нет в базе AccurateRip
Конец отчёта
[Торрент-статистика]
[Профиль]  [ЛС] 
Показать сообщения:    
Ответить на тему

Текущее время: Сегодня 00:23

Часовой пояс: GMT + 4



Вы не можете начинать темы
Вы не можете отвечать на сообщения
Вы не можете редактировать свои сообщения
Вы не можете удалять свои сообщения
Вы не можете голосовать в опросах
Вы не можете прикреплять файлы к сообщениям
Вы не можете скачивать файлы