VA - Стихи, ставшие песней. Любовь хулигана - Сергей Есенин - 2012, (Шансон), FLAC (image+.cue), lossless

Ответить на тему
 
Автор
Сообщение

Admiral ®

Пол:

Стаж: 4 года 10 месяцев

Сообщений: 594

Репутация: 136 [+] [-]

Пост 25-Фев-2014 22:25

[Цитировать] 

--Стихи, ставшие песней. Любовь хулигана - Сергей Есенин-- Жанр: Шансон
Страна-производитель диска: Россия
Год издания: 2012
Издатель (лейбл): Квадро-Диск
Номер по каталогу: KTL 12-652
Аудиокодек: FLAC (*.flac)
Тип рипа: image+.cue
Битрейт аудио: lossless
Продолжительность: 1:02:28
Наличие сканов в содержимом раздачи: да
Треклист:
-01. Андрей Бандера -- Клён (2:58)
02. Стас Михайлов -- Жизнь-обман (4:00)
03. Андрей Бандера -- Выткался над озером... (3:38)
04. Стас Михайлов -- Гори, моя звезда (4:17)
05. Игорь Слуцкий -- Думы мои думы (3:50)
06. Андрей Бандера -- Хулиган (3:37)
07. Стас Михайлов -- Покраснела рябина (3:00)
08. Виктор Королев -- Я, московский озорной гуляка (3:20)
09. Андрей Бандера -- Русь (4:12)
10. Сергей Любавин -- Пара лебедей (3:23)
11. Вика Цыганова -- Гой ты, Русь (2:30)
12. Андрей Бандера -- Сыпь, тальянка (3:22)
13. Стас Михайлов -- Полевая Россия (3:04)
14. Отец и сын Осиповы -- Письмо к матери (4:28)
15. Александр Малинин -- Забава (4:23)
16. Стас Михайлов -- Уходим понемногу (4:17)
17. Сергей Любавин -- Прощание с Айседорой (4:08)
-

Отчёт ЕАС

Exact Audio Copy V1.0 beta 3 from 29. August 2011
Отчёт EAC об извлечении, выполненном 9. апреля 2012, 18:06
Various Artists / Стихи, ставшие песней. Любовь хулигана. Сергей Есенин
Дисковод: ASUS DRW-1814BLT Adapter: 2 ID: 0
Режим чтения : Достоверность
Использование точного потока : Да
Отключение кэша аудио : Да
Использование указателей C2 : Нет
Коррекция смещения при чтении : 6
Способность читать области Lead-in и Lead-out : Нет
Заполнение пропущенных сэмплов тишиной : Да
Удаление блоков с тишиной в начале и конце : Нет
При вычислениях CRC использовались нулевые сэмплы : Да
Интерфейс : Встроенный Win32-интерфейс для Win NT/2000
Выходной формат : Внутренние WAV-операции
Формат сэмплов : 44.100 Гц; 16 бит; стерео
TOC извлечённого CD
Трек | Старт | Длительность | Начальный сектор | Конечный сектор
---------------------------------------------------------------------
1 | 0:00.00 | 2:58.10 | 0 | 13359
2 | 2:58.10 | 4:00.03 | 13360 | 31362
3 | 6:58.13 | 3:38.00 | 31363 | 47712
4 | 10:36.13 | 4:16.44 | 47713 | 66956
5 | 14:52.57 | 3:49.62 | 66957 | 84193
6 | 18:42.44 | 3:36.54 | 84194 | 100447
7 | 22:19.23 | 3:00.20 | 100448 | 113967
8 | 25:19.43 | 3:20.37 | 113968 | 129004
9 | 28:40.05 | 4:12.34 | 129005 | 147938
10 | 32:52.39 | 3:23.20 | 147939 | 163183
11 | 36:15.59 | 2:30.10 | 163184 | 174443
12 | 38:45.69 | 3:22.12 | 174444 | 189605
13 | 42:08.06 | 3:03.52 | 189606 | 203382
14 | 45:11.58 | 4:28.01 | 203383 | 223483
15 | 49:39.59 | 4:22.61 | 223484 | 243194
16 | 54:02.45 | 4:17.09 | 243195 | 262478
17 | 58:19.54 | 4:08.23 | 262479 | 281101
Характеристики диапазона извлечения и сообщения об ошибках
Выбранный диапазон
Имя файла C:\Various Artists - Стихи, ставшие песней. Любовь хулигана. Сергей Есенин.wav
Пиковый уровень 97.8 %
Скорость извлечения 9.1 X
Качество диапазона 100.0 %
CRC теста 25D22CA0
CRC копии 25D22CA0
Копирование... OK
Ошибок не произошло
AccurateRip: сводка
Трек 1 отсутствует в базе данных
Трек 2 отсутствует в базе данных
Трек 3 отсутствует в базе данных
Трек 4 отсутствует в базе данных
Трек 5 отсутствует в базе данных
Трек 6 отсутствует в базе данных
Трек 7 отсутствует в базе данных
Трек 8 отсутствует в базе данных
Трек 9 отсутствует в базе данных
Трек 10 отсутствует в базе данных
Трек 11 отсутствует в базе данных
Трек 12 отсутствует в базе данных
Трек 13 отсутствует в базе данных
Трек 14 отсутствует в базе данных
Трек 15 отсутствует в базе данных
Трек 16 отсутствует в базе данных
Трек 17 отсутствует в базе данных
Ни одного трека нет в базе AccurateRip
Конец отчёта
==== Контрольная сумма отчёта B8D94826A4A258F89978D18719E43CF00E54DFED4BDF8996B69A327D3DC99A92 ====
[Торрент-статистика]
[Профиль]  [ЛС] 
Показать сообщения:    
Ответить на тему

Текущее время: Сегодня 19:35

Часовой пояс: GMT + 4



Вы не можете начинать темы
Вы не можете отвечать на сообщения
Вы не можете редактировать свои сообщения
Вы не можете удалять свои сообщения
Вы не можете голосовать в опросах
Вы не можете прикреплять файлы к сообщениям
Вы не можете скачивать файлы