Сергей Прокофьев - Любовь к трем апельсинам / Sergei Prokofiev - L'amour des trois oranges (Philippe Rouillon, Charles Workman, Hannah Esther Minutillo, Barry Banks, José Dam) [2007, Opera, DVD9]

Ответить на тему
 
Автор
Сообщение

Sekes ®

Пол:

Стаж: 1 год

Сообщений: 3

Репутация: 5 [+] [-]

Пост 01-Июн-2017 21:12

[Цитировать] 

Sergei Prokofiev - L'amour des trois oranges
Год выпуска: 2007
Лейбл: Opera National De Paris, TDK
Страна-производитель: Франция
Жанр: Opera
Продолжительность: 02:26:00
Язык: Французский
Перевод: Не требуется
Субтитры: Английские, немецкие, французские, итальянские, испанские
Режиссер/Хореограф: Гилберт Дефло
Исполнители: Филипп Руйон, Чарльз Уоркман, Ханна Эстер Минутло, Барри Бэнкс, Жозе Дам
Описание: «Любовь к трем апельсинам» - опера С. Прокофьева в 4-х действиях (10-ти картинах) с прологом. Либретто композитора по одноименной драматической сказке К. Гоцци. Премьера прошла в Чикаго 30 декабря 1921 года (на французском языке), на русской сцене в Ленинграде в Театре оперы и балета 18 декабря 1926 года, в Москве в Большом театре 19 мая 1927 года. Замысел оперы возник под воздействием В. Мейерхольда, который в 1914 году переработал совместно с В. Соловьевым и К. Вогаком сценарий фьябы (пьесы-сказки) Гоцци. Этот сценарий был опубликован в 1-м выпуске театрального журнала «Любовь к трем апельсинам», который Прокофьев взял с собой, уезжая в Америку. Там и была написана опера. Пьеса Гоцци была переосмыслена Мейерхольдом и Прокофьевым. Высмеивая обветшалые формы и каноны старой оперы, Прокофьев прежде всего утверждает животворную силу смеха, радость жизни, фантазии. «Любовь к трем апельсинам» относится к самым жизнерадостным и веселым операм XX века.
Качество видео: DVD9
Формат/Контейнер: DVDVideo
Видео кодек: MPEG2
Аудио кодек: AC3
Видео поток: NTSC 16:9 720x480 VBR, 9800 Кбит/сек
Аудио поток: AC3, 2 ch 224 Кбит/сек

Скриншоты

Инфо-Файл

Общее
Полное имя : D:\Sergei Prokofiev - L'Amour des trois Oranges (2007) [DVD9 NTSC]\image\L_AMOUR_DES_TROIS_ORANGES\VIDEO_TS\VIDEO_TS.BUP
Формат : DVD Video
Профиль формата : Menu
Размер файла : 16,0 Кбайт
Режим общего битрейта : Переменный
FileExtension_Invalid : ifo
Видео
Идентификатор : 224 (0xE0)
Формат : MPEG Video
Версия формата : Version 2
Вид битрейта : Переменный
Ширина : 720 пикселей
Высота : 480 пикселей
Соотношение сторон : 4:3
Частота кадров : 29,970 (29970/1000) кадров/сек
Стандарт вещания : NTSC
Метод сжатия : С потерями
Аудио
Формат : AC-3
Формат/Информация : Audio Coding 3
Каналы : 2 канала
Частота : 48,0 КГц
Метод сжатия : С потерями
Текст
Формат : RLE
Формат/Информация : Run-length encoding
Битовая глубина : 2 бит
Общее
Полное имя : D:\Sergei Prokofiev - L'Amour des trois Oranges (2007) [DVD9 NTSC]\image\L_AMOUR_DES_TROIS_ORANGES\VIDEO_TS\VIDEO_TS.IFO
Формат : DVD Video
Профиль формата : Menu
Размер файла : 16,0 Кбайт
Режим общего битрейта : Переменный
Видео
Идентификатор : 224 (0xE0)
Формат : MPEG Video
Версия формата : Version 2
Вид битрейта : Переменный
Ширина : 720 пикселей
Высота : 480 пикселей
Соотношение сторон : 4:3
Частота кадров : 29,970 (29970/1000) кадров/сек
Стандарт вещания : NTSC
Метод сжатия : С потерями
Аудио
Формат : AC-3
Формат/Информация : Audio Coding 3
Каналы : 2 канала
Частота : 48,0 КГц
Метод сжатия : С потерями
Текст
Формат : RLE
Формат/Информация : Run-length encoding
Битовая глубина : 2 бит
Общее
Полное имя : D:\Sergei Prokofiev - L'Amour des trois Oranges (2007) [DVD9 NTSC]\image\L_AMOUR_DES_TROIS_ORANGES\VIDEO_TS\VIDEO_TS.VOB
Формат : MPEG-PS
Размер файла : 99,8 Мбайт
Продолжительность : 40 с. 107 мс.
Режим общего битрейта : Переменный
Общий поток : 20,9 Мбит/сек
Видео
Идентификатор : 224 (0xE0)
Формат : MPEG Video
Версия формата : Version 2
Профиль формата : Main@Main
Параметр BVOP формата : Да
Параметр матрицы формата : Выборочная
Параметр GOP формата : Variable
Структура изображения : Frame
Продолжительность : 40 с. 107 мс.
Вид битрейта : Переменный
Битрейт : 20,2 Мбит/сек
Максимальный битрейт : 9800 Кбит/сек
Ширина : 720 пикселей
Высота : 480 пикселей
Соотношение сторон : 4:3
Частота кадров : 29,970 (30000/1001) кадров/сек
Стандарт вещания : NTSC
Цветовое пространство : YUV
Субдискретизация насыщенности : 4:2:0
Битовая глубина : 8 бит
Тип развёртки : Чересстрочная
Порядок развёртки : Верхнее поле первое
Метод сжатия : С потерями
Бит/(Пиксели*Кадры) : 1.953
Временной код первого кадра : 00:00:00;00
Оригинал временного кода : Group of pictures header
GOP, открыто/закрыто : Открыто
GOP, открыто/закрыто на первом кадре : Закрыто
Размер потока : 96,7 Мбайт (97%)
Аудио
Идентификатор : 189 (0xBD)-128 (0x80)
Формат : AC-3
Формат/Информация : Audio Coding 3
Параметр Endianness формата : Big
Режим смешивания : DVD-Video
Продолжительность : 40 с. 96 мс.
Вид битрейта : Постоянный
Битрейт : 224 Кбит/сек
Каналы : 2 канала
Расположение каналов : Front: L R
Частота : 48,0 КГц
Частота кадров : 31,250 кадров/сек (1536 spf)
Битовая глубина : 16 бит
Метод сжатия : С потерями
Размер потока : 1,07 Мбайт (1%)
ServiceKind/String : Complete Main
Текст
Идентификатор : 189 (0xBD)-32 (0x20)
Формат : RLE
Формат/Информация : Run-length encoding
Режим смешивания : DVD-Video
Задержка видео : 7 с. 807 мс.
Меню
Общее
Полное имя : D:\Sergei Prokofiev - L'Amour des trois Oranges (2007) [DVD9 NTSC]\image\L_AMOUR_DES_TROIS_ORANGES\VIDEO_TS\VTS_01_0.BUP
Формат : DVD Video
Профиль формата : Program
Размер файла : 18,0 Кбайт
Продолжительность : 500 мс.
Режим общего битрейта : Переменный
Общий поток : 295 Кбит/сек
FileExtension_Invalid : ifo
Видео
Идентификатор : 224 (0xE0)
Формат : MPEG Video
Версия формата : Version 2
Продолжительность : 501 мс.
Вид битрейта : Переменный
Ширина : 720 пикселей
Высота : 480 пикселей
Соотношение сторон : 4:3
Частота кадров : 29,970 (29970/1000) кадров/сек
Стандарт вещания : NTSC
Метод сжатия : С потерями
Аудио
Идентификатор : 128 (0x80)
Формат : AC-3
Формат/Информация : Audio Coding 3
Продолжительность : 500 мс.
Каналы : 2 канала
Частота : 48,0 КГц
Метод сжатия : С потерями
Меню
Продолжительность : 500 мс.
00:00:00.000 : Chapter 1
List (Audio) : 0
Общее
Полное имя : D:\Sergei Prokofiev - L'Amour des trois Oranges (2007) [DVD9 NTSC]\image\L_AMOUR_DES_TROIS_ORANGES\VIDEO_TS\VTS_01_0.IFO
Формат : DVD Video
Профиль формата : Program
Размер файла : 18,0 Кбайт
Продолжительность : 500 мс.
Режим общего битрейта : Переменный
Общий поток : 295 Кбит/сек
Видео
Идентификатор : 224 (0xE0)
Формат : MPEG Video
Версия формата : Version 2
Продолжительность : 501 мс.
Вид битрейта : Переменный
Ширина : 720 пикселей
Высота : 480 пикселей
Соотношение сторон : 4:3
Частота кадров : 29,970 (29970/1000) кадров/сек
Стандарт вещания : NTSC
Метод сжатия : С потерями
Аудио
Идентификатор : 128 (0x80)
Формат : AC-3
Формат/Информация : Audio Coding 3
Продолжительность : 500 мс.
Каналы : 2 канала
Частота : 48,0 КГц
Метод сжатия : С потерями
Меню
Продолжительность : 500 мс.
00:00:00.000 : Chapter 1
List (Audio) : 0
Общее
Полное имя : D:\Sergei Prokofiev - L'Amour des trois Oranges (2007) [DVD9 NTSC]\image\L_AMOUR_DES_TROIS_ORANGES\VIDEO_TS\VTS_01_0.VOB
Формат : MPEG-PS
Размер файла : 1,04 Мбайт
Продолжительность : 3 с. 3 мс.
Режим общего битрейта : Переменный
Общий поток : 2913 Кбит/сек
Видео
Идентификатор : 224 (0xE0)
Формат : MPEG Video
Версия формата : Version 2
Профиль формата : Main@Main
Параметр BVOP формата : Да
Параметр матрицы формата : Выборочная
Параметр GOP формата : M=3, N=15
Структура изображения : Frame
Продолжительность : 83 мс.
Вид битрейта : Переменный
Битрейт : 2631 Кбит/сек
Максимальный битрейт : 9800 Кбит/сек
Ширина : 720 пикселей
Высота : 480 пикселей
Соотношение сторон : 4:3
Частота кадров : 29,970 (30000/1001) кадров/сек
Стандарт вещания : NTSC
Цветовое пространство : YUV
Субдискретизация насыщенности : 4:2:0
Битовая глубина : 8 бит
Тип развёртки : Чересстрочная
Порядок развёртки : Верхнее поле первое
Метод сжатия : С потерями
Бит/(Пиксели*Кадры) : 0.254
Размер потока : 21,4 Кбайт (2%)
Аудио
Идентификатор : 189 (0xBD)-128 (0x80)
Формат : AC-3
Формат/Информация : Audio Coding 3
Параметр Endianness формата : Big
Режим смешивания : DVD-Video
Продолжительность : 529 мс.
Вид битрейта : Постоянный
Битрейт : 224 Кбит/сек
Каналы : 2 канала
Расположение каналов : Front: L R
Частота : 48,0 КГц
Частота кадров : 31,250 кадров/сек (1536 spf)
Битовая глубина : 16 бит
Метод сжатия : С потерями
Размер потока : 14,5 Кбайт (1%)
ServiceKind/String : Complete Main
Текст
Идентификатор : 189 (0xBD)-32 (0x20)
Формат : RLE
Формат/Информация : Run-length encoding
Режим смешивания : DVD-Video
Продолжительность : 3 с. 3 мс.
Меню
Общее
Полное имя : D:\Sergei Prokofiev - L'Amour des trois Oranges (2007) [DVD9 NTSC]\image\L_AMOUR_DES_TROIS_ORANGES\VIDEO_TS\VTS_01_1.VOB
Формат : MPEG-PS
Размер файла : 22,0 Кбайт
Продолжительность : 480 мс.
Режим общего битрейта : Постоянный
Общий поток : 375 Кбит/сек
Видео
Идентификатор : 224 (0xE0)
Формат : MPEG Video
Версия формата : Version 2
Профиль формата : Main@Main
Параметр BVOP формата : Нет
Параметр матрицы формата : Выборочная
Продолжительность : 33 мс.
Вид битрейта : Постоянный
Максимальный битрейт : 8000 Кбит/сек
Ширина : 720 пикселей
Высота : 480 пикселей
Соотношение сторон : 4:3
Частота кадров : 29,970 (30000/1001) кадров/сек
Стандарт вещания : NTSC
Цветовое пространство : YUV
Субдискретизация насыщенности : 4:2:0
Битовая глубина : 8 бит
Тип развёртки : Прогрессивная
Порядок развёртки : Верхнее поле первое
Метод сжатия : С потерями
Временной код первого кадра : 00:00:00:00
Оригинал временного кода : Group of pictures header
Аудио
Идентификатор : 189 (0xBD)-128 (0x80)
Формат : AC-3
Формат/Информация : Audio Coding 3
Параметр Endianness формата : Big
Режим смешивания : DVD-Video
Продолжительность : 480 мс.
Вид битрейта : Постоянный
Битрейт : 224 Кбит/сек
Каналы : 2 канала
Расположение каналов : Front: L R
Частота : 48,0 КГц
Частота кадров : 31,250 кадров/сек (1536 spf)
Битовая глубина : 16 бит
Метод сжатия : С потерями
Размер потока : 13,1 Кбайт (60%)
ServiceKind/String : Complete Main
Меню
Общее
Полное имя : D:\Sergei Prokofiev - L'Amour des trois Oranges (2007) [DVD9 NTSC]\image\L_AMOUR_DES_TROIS_ORANGES\VIDEO_TS\VTS_02_0.BUP
Формат : DVD Video
Профиль формата : Program
Размер файла : 34,0 Кбайт
Продолжительность : 30 м. 0 с.
Режим общего битрейта : Переменный
Общий поток : 155 бит/сек
FileExtension_Invalid : ifo
Видео
Идентификатор : 224 (0xE0)
Формат : MPEG Video
Версия формата : Version 2
Продолжительность : 30 м. 0 с.
Вид битрейта : Переменный
Ширина : 720 пикселей
Высота : 480 пикселей
Соотношение сторон : 16:9
Частота кадров : 29,970 (29970/1000) кадров/сек
Стандарт вещания : NTSC
Метод сжатия : С потерями
Аудио
Идентификатор : 128 (0x80)
Формат : AC-3
Формат/Информация : Audio Coding 3
Продолжительность : 30 м. 0 с.
Каналы : 2 канала
Частота : 48,0 КГц
Метод сжатия : С потерями
Текст #1
Идентификатор : 32 (0x20)
Формат : RLE
Формат/Информация : Run-length encoding
Битовая глубина : 2 бит
Язык : English
Язык, дополнительно : Normal
Текст #2
Идентификатор : 33 (0x21)
Формат : RLE
Формат/Информация : Run-length encoding
Битовая глубина : 2 бит
Язык : German
Язык, дополнительно : Normal
Текст #3
Идентификатор : 34 (0x22)
Формат : RLE
Формат/Информация : Run-length encoding
Битовая глубина : 2 бит
Язык : French
Язык, дополнительно : Normal
Текст #4
Идентификатор : 35 (0x23)
Формат : RLE
Формат/Информация : Run-length encoding
Битовая глубина : 2 бит
Язык : Spanish
Язык, дополнительно : Normal
Текст #5
Идентификатор : 36 (0x24)
Формат : RLE
Формат/Информация : Run-length encoding
Битовая глубина : 2 бит
Язык : Italian
Язык, дополнительно : Normal
Меню
Продолжительность : 30 м. 0 с.
00:00:00.000 : Chapter 1
List (Audio) : 0
List (Subtitles 4/3) : 0 / 0 / 0 / 0 / 0
List (Subtitles Wide) : 0 / 1 / 2 / 3 / 4
List (Subtitles Letterbox) : 0 / 1 / 2 / 3 / 4
List (Subtitles Pan&Scan) : 0 / 0 / 0 / 0 / 0
Общее
Полное имя : D:\Sergei Prokofiev - L'Amour des trois Oranges (2007) [DVD9 NTSC]\image\L_AMOUR_DES_TROIS_ORANGES\VIDEO_TS\VTS_02_0.IFO
Формат : DVD Video
Профиль формата : Program
Размер файла : 34,0 Кбайт
Продолжительность : 30 м. 0 с.
Режим общего битрейта : Переменный
Общий поток : 155 бит/сек
Видео
Идентификатор : 224 (0xE0)
Формат : MPEG Video
Версия формата : Version 2
Продолжительность : 30 м. 0 с.
Вид битрейта : Переменный
Ширина : 720 пикселей
Высота : 480 пикселей
Соотношение сторон : 16:9
Частота кадров : 29,970 (29970/1000) кадров/сек
Стандарт вещания : NTSC
Метод сжатия : С потерями
Аудио
Идентификатор : 128 (0x80)
Формат : AC-3
Формат/Информация : Audio Coding 3
Продолжительность : 30 м. 0 с.
Каналы : 2 канала
Частота : 48,0 КГц
Метод сжатия : С потерями
Текст #1
Идентификатор : 32 (0x20)
Формат : RLE
Формат/Информация : Run-length encoding
Битовая глубина : 2 бит
Язык : English
Язык, дополнительно : Normal
Текст #2
Идентификатор : 33 (0x21)
Формат : RLE
Формат/Информация : Run-length encoding
Битовая глубина : 2 бит
Язык : German
Язык, дополнительно : Normal
Текст #3
Идентификатор : 34 (0x22)
Формат : RLE
Формат/Информация : Run-length encoding
Битовая глубина : 2 бит
Язык : French
Язык, дополнительно : Normal
Текст #4
Идентификатор : 35 (0x23)
Формат : RLE
Формат/Информация : Run-length encoding
Битовая глубина : 2 бит
Язык : Spanish
Язык, дополнительно : Normal
Текст #5
Идентификатор : 36 (0x24)
Формат : RLE
Формат/Информация : Run-length encoding
Битовая глубина : 2 бит
Язык : Italian
Язык, дополнительно : Normal
Меню
Продолжительность : 30 м. 0 с.
00:00:00.000 : Chapter 1
List (Audio) : 0
List (Subtitles 4/3) : 0 / 0 / 0 / 0 / 0
List (Subtitles Wide) : 0 / 1 / 2 / 3 / 4
List (Subtitles Letterbox) : 0 / 1 / 2 / 3 / 4
List (Subtitles Pan&Scan) : 0 / 0 / 0 / 0 / 0
Общее
Полное имя : D:\Sergei Prokofiev - L'Amour des trois Oranges (2007) [DVD9 NTSC]\image\L_AMOUR_DES_TROIS_ORANGES\VIDEO_TS\VTS_02_1.VOB
Формат : MPEG-PS
Размер файла : 1024 Мбайт
Продолжительность : 27 м. 28 с.
Режим общего битрейта : Переменный
Общий поток : 5211 Кбит/сек
Видео
Идентификатор : 224 (0xE0)
Формат : MPEG Video
Версия формата : Version 2
Профиль формата : Main@Main
Параметр BVOP формата : Да
Параметр матрицы формата : Выборочная
Параметр GOP формата : M=3, N=15
Структура изображения : Frame
Продолжительность : 27 м. 28 с.
Вид битрейта : Переменный
Битрейт : 4883 Кбит/сек
Максимальный битрейт : 9800 Кбит/сек
Ширина : 720 пикселей
Высота : 480 пикселей
Соотношение сторон : 16:9
Частота кадров : 29,970 (30000/1001) кадров/сек
Стандарт вещания : NTSC
Цветовое пространство : YUV
Субдискретизация насыщенности : 4:2:0
Битовая глубина : 8 бит
Тип развёртки : Чересстрочная
Порядок развёртки : Верхнее поле первое
Метод сжатия : С потерями
Бит/(Пиксели*Кадры) : 0.471
Размер потока : 959 Мбайт (94%)
Аудио
Идентификатор : 189 (0xBD)-128 (0x80)
Формат : AC-3
Формат/Информация : Audio Coding 3
Параметр Endianness формата : Big
Режим смешивания : DVD-Video
Продолжительность : 27 м. 28 с.
Вид битрейта : Постоянный
Битрейт : 224 Кбит/сек
Каналы : 2 канала
Расположение каналов : Front: L R
Частота : 48,0 КГц
Частота кадров : 31,250 кадров/сек (1536 spf)
Битовая глубина : 16 бит
Метод сжатия : С потерями
Размер потока : 44,0 Мбайт (4%)
ServiceKind/String : Complete Main
Меню
Общее
Полное имя : D:\Sergei Prokofiev - L'Amour des trois Oranges (2007) [DVD9 NTSC]\image\L_AMOUR_DES_TROIS_ORANGES\VIDEO_TS\VTS_02_2.VOB
Формат : MPEG-PS
Размер файла : 123 Мбайт
Продолжительность : 2 м. 33 с.
Режим общего битрейта : Переменный
Общий поток : 6681 Кбит/сек
Видео
Идентификатор : 224 (0xE0)
Формат : MPEG Video
Версия формата : Version 2
Профиль формата : Main@Main
Параметр BVOP формата : Да
Параметр матрицы формата : Выборочная
Параметр GOP формата : M=3, N=15
Структура изображения : Frame
Продолжительность : 2 м. 33 с.
Вид битрейта : Переменный
Битрейт : 6324 Кбит/сек
Максимальный битрейт : 9800 Кбит/сек
Ширина : 720 пикселей
Высота : 480 пикселей
Соотношение сторон : 16:9
Частота кадров : 29,970 (30000/1001) кадров/сек
Стандарт вещания : NTSC
Цветовое пространство : YUV
Субдискретизация насыщенности : 4:2:0
Битовая глубина : 8 бит
Тип развёртки : Чересстрочная
Порядок развёртки : Верхнее поле первое
Метод сжатия : С потерями
Бит/(Пиксели*Кадры) : 0.611
Размер потока : 116 Мбайт (95%)
Аудио
Идентификатор : 189 (0xBD)-128 (0x80)
Формат : AC-3
Формат/Информация : Audio Coding 3
Параметр Endianness формата : Big
Режим смешивания : DVD-Video
Продолжительность : 2 м. 33 с.
Вид битрейта : Постоянный
Битрейт : 224 Кбит/сек
Каналы : 2 канала
Расположение каналов : Front: L R
Частота : 48,0 КГц
Частота кадров : 31,250 кадров/сек (1536 spf)
Битовая глубина : 16 бит
Метод сжатия : С потерями
Задержка видео : -250 мс.
Размер потока : 4,11 Мбайт (3%)
ServiceKind/String : Complete Main
Меню
Общее
Полное имя : D:\Sergei Prokofiev - L'Amour des trois Oranges (2007) [DVD9 NTSC]\image\L_AMOUR_DES_TROIS_ORANGES\VIDEO_TS\VTS_03_0.BUP
Формат : DVD Video
Профиль формата : Program
Размер файла : 78,0 Кбайт
Продолжительность : 1 ч. 56 м.
Режим общего битрейта : Переменный
Общий поток : 92 бит/сек
FileExtension_Invalid : ifo
Видео
Идентификатор : 224 (0xE0)
Формат : MPEG Video
Версия формата : Version 2
Продолжительность : 1 ч. 56 м.
Вид битрейта : Переменный
Ширина : 720 пикселей
Высота : 480 пикселей
Соотношение сторон : 16:9
Частота кадров : 29,970 (29970/1000) кадров/сек
Стандарт вещания : NTSC
Метод сжатия : С потерями
Аудио #1
Идентификатор : 0 (0x0)
Формат : PCM
Продолжительность : 1 ч. 56 м.
Каналы : 2 канала
Частота : 48,0 КГц
Язык : French
Аудио #2
Идентификатор : 129 (0x81)
Формат : AC-3
Формат/Информация : Audio Coding 3
Продолжительность : 1 ч. 56 м.
Каналы : 5 каналов
Частота : 48,0 КГц
Метод сжатия : С потерями
Язык : French
Аудио #3
Идентификатор : 138 (0x8A)
Формат : DTS
Формат/Информация : Digital Theater Systems
Продолжительность : 1 ч. 56 м.
Каналы : 5 каналов
Частота : 48,0 КГц
Метод сжатия : С потерями
Язык : French
Текст #1
Идентификатор : 32 (0x20)
Формат : RLE
Формат/Информация : Run-length encoding
Битовая глубина : 2 бит
Язык : English
Язык, дополнительно : Normal
Текст #2
Идентификатор : 33 (0x21)
Формат : RLE
Формат/Информация : Run-length encoding
Битовая глубина : 2 бит
Язык : German
Язык, дополнительно : Normal
Текст #3
Идентификатор : 34 (0x22)
Формат : RLE
Формат/Информация : Run-length encoding
Битовая глубина : 2 бит
Язык : French
Язык, дополнительно : Normal
Текст #4
Идентификатор : 35 (0x23)
Формат : RLE
Формат/Информация : Run-length encoding
Битовая глубина : 2 бит
Язык : Spanish
Язык, дополнительно : Normal
Текст #5
Идентификатор : 36 (0x24)
Формат : RLE
Формат/Информация : Run-length encoding
Битовая глубина : 2 бит
Язык : Italian
Язык, дополнительно : Normal
Меню
Продолжительность : 1 ч. 56 м.
00:00:00.000 : Chapter 1
00:01:52.633 : Chapter 2
00:04:21.333 : Chapter 3
00:06:16.666 : Chapter 4
00:08:13.999 : Chapter 5
00:10:20.665 : Chapter 6
00:12:28.065 : Chapter 7
00:15:47.498 : Chapter 8
00:19:26.764 : Chapter 9
00:21:36.397 : Chapter 10
00:22:59.297 : Chapter 11
00:25:00.063 : Chapter 12
00:26:33.463 : Chapter 13
00:30:20.763 : Chapter 14
00:32:34.129 : Chapter 15
00:34:26.829 : Chapter 16
00:35:49.029 : Chapter 17
00:37:19.062 : Chapter 18
00:39:23.695 : Chapter 19
00:40:09.495 : Chapter 20
00:42:36.461 : Chapter 21
00:43:14.761 : Chapter 22
00:45:13.827 : Chapter 23
00:47:46.460 : Chapter 24
00:51:32.993 : Chapter 25
00:53:57.459 : Chapter 26
00:56:30.992 : Chapter 27
00:59:23.125 : Chapter 28
01:02:25.591 : Chapter 29
01:03:45.557 : Chapter 30
01:05:48.557 : Chapter 31
01:10:28.290 : Chapter 32
01:11:46.190 : Chapter 33
01:13:16.090 : Chapter 34
01:16:31.456 : Chapter 35
01:18:19.589 : Chapter 36
01:20:14.855 : Chapter 37
01:22:32.288 : Chapter 38
01:23:32.388 : Chapter 39
01:25:21.921 : Chapter 40
01:29:21.254 : Chapter 41
01:31:39.887 : Chapter 42
01:34:08.753 : Chapter 43
01:36:55.519 : Chapter 44
01:38:45.819 : Chapter 45
01:40:38.385 : Chapter 46
01:42:17.851 : Chapter 47
01:46:25.551 : Chapter 48
01:49:00.951 : Chapter 49
01:50:31.417 : Chapter 50
List (Audio) : 0 / 1 / 2
List (Subtitles 4/3) : 0 / 0 / 0 / 0 / 0
List (Subtitles Wide) : 0 / 1 / 2 / 3 / 4
List (Subtitles Letterbox) : 0 / 1 / 2 / 3 / 4
List (Subtitles Pan&Scan) : 0 / 0 / 0 / 0 / 0
Общее
Полное имя : D:\Sergei Prokofiev - L'Amour des trois Oranges (2007) [DVD9 NTSC]\image\L_AMOUR_DES_TROIS_ORANGES\VIDEO_TS\VTS_03_0.IFO
Формат : DVD Video
Профиль формата : Program
Размер файла : 78,0 Кбайт
Продолжительность : 1 ч. 56 м.
Режим общего битрейта : Переменный
Общий поток : 92 бит/сек
Видео
Идентификатор : 224 (0xE0)
Формат : MPEG Video
Версия формата : Version 2
Продолжительность : 1 ч. 56 м.
Вид битрейта : Переменный
Ширина : 720 пикселей
Высота : 480 пикселей
Соотношение сторон : 16:9
Частота кадров : 29,970 (29970/1000) кадров/сек
Стандарт вещания : NTSC
Метод сжатия : С потерями
Аудио #1
Идентификатор : 0 (0x0)
Формат : PCM
Продолжительность : 1 ч. 56 м.
Каналы : 2 канала
Частота : 48,0 КГц
Язык : French
Аудио #2
Идентификатор : 129 (0x81)
Формат : AC-3
Формат/Информация : Audio Coding 3
Продолжительность : 1 ч. 56 м.
Каналы : 5 каналов
Частота : 48,0 КГц
Метод сжатия : С потерями
Язык : French
Аудио #3
Идентификатор : 138 (0x8A)
Формат : DTS
Формат/Информация : Digital Theater Systems
Продолжительность : 1 ч. 56 м.
Каналы : 5 каналов
Частота : 48,0 КГц
Метод сжатия : С потерями
Язык : French
Текст #1
Идентификатор : 32 (0x20)
Формат : RLE
Формат/Информация : Run-length encoding
Битовая глубина : 2 бит
Язык : English
Язык, дополнительно : Normal
Текст #2
Идентификатор : 33 (0x21)
Формат : RLE
Формат/Информация : Run-length encoding
Битовая глубина : 2 бит
Язык : German
Язык, дополнительно : Normal
Текст #3
Идентификатор : 34 (0x22)
Формат : RLE
Формат/Информация : Run-length encoding
Битовая глубина : 2 бит
Язык : French
Язык, дополнительно : Normal
Текст #4
Идентификатор : 35 (0x23)
Формат : RLE
Формат/Информация : Run-length encoding
Битовая глубина : 2 бит
Язык : Spanish
Язык, дополнительно : Normal
Текст #5
Идентификатор : 36 (0x24)
Формат : RLE
Формат/Информация : Run-length encoding
Битовая глубина : 2 бит
Язык : Italian
Язык, дополнительно : Normal
Меню
Продолжительность : 1 ч. 56 м.
00:00:00.000 : Chapter 1
00:01:52.633 : Chapter 2
00:04:21.333 : Chapter 3
00:06:16.666 : Chapter 4
00:08:13.999 : Chapter 5
00:10:20.665 : Chapter 6
00:12:28.065 : Chapter 7
00:15:47.498 : Chapter 8
00:19:26.764 : Chapter 9
00:21:36.397 : Chapter 10
00:22:59.297 : Chapter 11
00:25:00.063 : Chapter 12
00:26:33.463 : Chapter 13
00:30:20.763 : Chapter 14
00:32:34.129 : Chapter 15
00:34:26.829 : Chapter 16
00:35:49.029 : Chapter 17
00:37:19.062 : Chapter 18
00:39:23.695 : Chapter 19
00:40:09.495 : Chapter 20
00:42:36.461 : Chapter 21
00:43:14.761 : Chapter 22
00:45:13.827 : Chapter 23
00:47:46.460 : Chapter 24
00:51:32.993 : Chapter 25
00:53:57.459 : Chapter 26
00:56:30.992 : Chapter 27
00:59:23.125 : Chapter 28
01:02:25.591 : Chapter 29
01:03:45.557 : Chapter 30
01:05:48.557 : Chapter 31
01:10:28.290 : Chapter 32
01:11:46.190 : Chapter 33
01:13:16.090 : Chapter 34
01:16:31.456 : Chapter 35
01:18:19.589 : Chapter 36
01:20:14.855 : Chapter 37
01:22:32.288 : Chapter 38
01:23:32.388 : Chapter 39
01:25:21.921 : Chapter 40
01:29:21.254 : Chapter 41
01:31:39.887 : Chapter 42
01:34:08.753 : Chapter 43
01:36:55.519 : Chapter 44
01:38:45.819 : Chapter 45
01:40:38.385 : Chapter 46
01:42:17.851 : Chapter 47
01:46:25.551 : Chapter 48
01:49:00.951 : Chapter 49
01:50:31.417 : Chapter 50
List (Audio) : 0 / 1 / 2
List (Subtitles 4/3) : 0 / 0 / 0 / 0 / 0
List (Subtitles Wide) : 0 / 1 / 2 / 3 / 4
List (Subtitles Letterbox) : 0 / 1 / 2 / 3 / 4
List (Subtitles Pan&Scan) : 0 / 0 / 0 / 0 / 0
Общее
Полное имя : D:\Sergei Prokofiev - L'Amour des trois Oranges (2007) [DVD9 NTSC]\image\L_AMOUR_DES_TROIS_ORANGES\VIDEO_TS\VTS_03_0.VOB
Формат : MPEG-PS
Размер файла : 500 Кбайт
Продолжительность : 33 мс.
Общий поток : 124 Мбит/сек
Видео
Идентификатор : 224 (0xE0)
Формат : MPEG Video
Версия формата : Version 2
Профиль формата : Main@Main
Параметр BVOP формата : Нет
Параметр матрицы формата : Выборочная
Параметр GOP формата : N=1
Продолжительность : 33 мс.
Вид битрейта : Постоянный
Максимальный битрейт : 8000 Кбит/сек
Ширина : 720 пикселей
Высота : 480 пикселей
Соотношение сторон : 4:3
Частота кадров : 29,970 (30000/1001) кадров/сек
Стандарт вещания : NTSC
Цветовое пространство : YUV
Субдискретизация насыщенности : 4:2:0
Битовая глубина : 8 бит
Тип развёртки : Прогрессивная
Порядок развёртки : Верхнее поле первое
Метод сжатия : С потерями
Текст
Идентификатор : 189 (0xBD)-32 (0x20)
Формат : RLE
Формат/Информация : Run-length encoding
Режим смешивания : DVD-Video
Меню
Общее
Полное имя : D:\Sergei Prokofiev - L'Amour des trois Oranges (2007) [DVD9 NTSC]\image\L_AMOUR_DES_TROIS_ORANGES\VIDEO_TS\VTS_03_1.VOB
Формат : MPEG-PS
Размер файла : 1024 Мбайт
Продолжительность : 18 м. 43 с.
Режим общего битрейта : Переменный
Общий поток : 7645 Кбит/сек
Видео
Идентификатор : 224 (0xE0)
Формат : MPEG Video
Версия формата : Version 2
Профиль формата : Main@Main
Параметр BVOP формата : Да
Параметр матрицы формата : Выборочная
Параметр GOP формата : M=3, N=15
Структура изображения : Frame
Продолжительность : 18 м. 43 с.
Вид битрейта : Переменный
Битрейт : 4755 Кбит/сек
Максимальный битрейт : 9800 Кбит/сек
Ширина : 720 пикселей
Высота : 480 пикселей
Соотношение сторон : 16:9
Частота кадров : 29,970 (30000/1001) кадров/сек
Стандарт вещания : NTSC
Цветовое пространство : YUV
Субдискретизация насыщенности : 4:2:0
Битовая глубина : 8 бит
Тип развёртки : Чересстрочная
Порядок развёртки : Верхнее поле первое
Метод сжатия : С потерями
Бит/(Пиксели*Кадры) : 0.459
Размер потока : 637 Мбайт (62%)
Аудио #1
Идентификатор : 189 (0xBD)-129 (0x81)
Формат : AC-3
Формат/Информация : Audio Coding 3
Параметр Endianness формата : Big
Режим смешивания : DVD-Video
Продолжительность : 18 м. 42 с.
Вид битрейта : Постоянный
Битрейт : 448 Кбит/сек
Каналы : 5 каналов
Расположение каналов : Front: L C R, Side: L R
Частота : 48,0 КГц
Частота кадров : 31,250 кадров/сек (1536 spf)
Битовая глубина : 16 бит
Метод сжатия : С потерями
Размер потока : 60,0 Мбайт (6%)
ServiceKind/String : Complete Main
Аудио #2
Идентификатор : 189 (0xBD)-138 (0x8A)
Формат : DTS
Формат/Информация : Digital Theater Systems
Режим : 16
Параметр Endianness формата : Big
Режим смешивания : DVD-Video
Продолжительность : 18 м. 42 с.
Вид битрейта : Постоянный
Битрейт : 755 Кбит/сек
Каналы : 5 каналов
Расположение каналов : Front: L C R, Side: L R
Частота : 48,0 КГц
Частота кадров : 93,750 кадра/сек (512 spf)
Битовая глубина : 24 бит
Метод сжатия : С потерями
Размер потока : 101 Мбайт (10%)
Аудио #3
Идентификатор : 189 (0xBD)-160 (0xA0)
Формат : PCM
Параметр Endianness формата : Big
Параметр Sign формата : Signed
Режим смешивания : DVD-Video
Продолжительность : 18 м. 42 с.
Вид битрейта : Постоянный
Битрейт : 1536 Кбит/сек
Каналы : 2 канала
Частота : 48,0 КГц
Битовая глубина : 16 бит
Размер потока : 206 Мбайт (20%)
Меню
Общее
Полное имя : D:\Sergei Prokofiev - L'Amour des trois Oranges (2007) [DVD9 NTSC]\image\L_AMOUR_DES_TROIS_ORANGES\VIDEO_TS\VTS_03_2.VOB
Формат : MPEG-PS
Размер файла : 1024 Мбайт
Продолжительность : 17 м. 45 с.
Режим общего битрейта : Переменный
Общий поток : 8058 Кбит/сек
Видео
Идентификатор : 224 (0xE0)
Формат : MPEG Video
Версия формата : Version 2
Профиль формата : Main@Main
Параметр BVOP формата : Да
Параметр матрицы формата : Выборочная
Параметр GOP формата : M=3, N=15
Структура изображения : Frame
Продолжительность : 17 м. 45 с.
Вид битрейта : Переменный
Битрейт : 5159 Кбит/сек
Максимальный битрейт : 9800 Кбит/сек
Ширина : 720 пикселей
Высота : 480 пикселей
Соотношение сторон : 16:9
Частота кадров : 29,970 (30000/1001) кадров/сек
Стандарт вещания : NTSC
Цветовое пространство : YUV
Субдискретизация насыщенности : 4:2:0
Битовая глубина : 8 бит
Тип развёртки : Чересстрочная
Порядок развёртки : Верхнее поле первое
Метод сжатия : С потерями
Бит/(Пиксели*Кадры) : 0.498
Размер потока : 655 Мбайт (64%)
Аудио #1
Идентификатор : 189 (0xBD)-129 (0x81)
Формат : AC-3
Формат/Информация : Audio Coding 3
Параметр Endianness формата : Big
Режим смешивания : DVD-Video
Продолжительность : 17 м. 45 с.
Вид битрейта : Постоянный
Битрейт : 448 Кбит/сек
Каналы : 5 каналов
Расположение каналов : Front: L C R, Side: L R
Частота : 48,0 КГц
Частота кадров : 31,250 кадров/сек (1536 spf)
Битовая глубина : 16 бит
Метод сжатия : С потерями
Задержка видео : -276 мс.
Размер потока : 56,9 Мбайт (6%)
ServiceKind/String : Complete Main
Аудио #2
Идентификатор : 189 (0xBD)-138 (0x8A)
Формат : DTS
Формат/Информация : Digital Theater Systems
Режим : 16
Параметр Endianness формата : Big
Режим смешивания : DVD-Video
Продолжительность : 17 м. 45 с.
Вид битрейта : Постоянный
Битрейт : 755 Кбит/сек
Каналы : 5 каналов
Расположение каналов : Front: L C R, Side: L R
Частота : 48,0 КГц
Частота кадров : 93,750 кадра/сек (512 spf)
Битовая глубина : 24 бит
Метод сжатия : С потерями
Задержка видео : -308 мс.
Размер потока : 95,9 Мбайт (9%)
Аудио #3
Идентификатор : 189 (0xBD)-160 (0xA0)
Формат : PCM
Параметр Endianness формата : Big
Параметр Sign формата : Signed
Режим смешивания : DVD-Video
Продолжительность : 17 м. 45 с.
Вид битрейта : Постоянный
Битрейт : 1536 Кбит/сек
Каналы : 2 канала
Частота : 48,0 КГц
Битовая глубина : 16 бит
Задержка видео : -333 мс.
Размер потока : 195 Мбайт (19%)
Меню
Общее
Полное имя : D:\Sergei Prokofiev - L'Amour des trois Oranges (2007) [DVD9 NTSC]\image\L_AMOUR_DES_TROIS_ORANGES\VIDEO_TS\VTS_03_3.VOB
Формат : MPEG-PS
Размер файла : 1024 Мбайт
Продолжительность : 16 м. 50 с.
Режим общего битрейта : Переменный
Общий поток : 8500 Кбит/сек
Видео
Идентификатор : 224 (0xE0)
Формат : MPEG Video
Версия формата : Version 2
Профиль формата : Main@Main
Параметр BVOP формата : Да
Параметр матрицы формата : Выборочная
Параметр GOP формата : M=3, N=15
Структура изображения : Frame
Продолжительность : 16 м. 50 с.
Вид битрейта : Переменный
Битрейт : 5592 Кбит/сек
Максимальный битрейт : 9800 Кбит/сек
Ширина : 720 пикселей
Высота : 480 пикселей
Соотношение сторон : 16:9
Частота кадров : 29,970 (30000/1001) кадров/сек
Стандарт вещания : NTSC
Цветовое пространство : YUV
Субдискретизация насыщенности : 4:2:0
Битовая глубина : 8 бит
Тип развёртки : Чересстрочная
Порядок развёртки : Верхнее поле первое
Метод сжатия : С потерями
Бит/(Пиксели*Кадры) : 0.540
Размер потока : 673 Мбайт (66%)
Аудио #1
Идентификатор : 189 (0xBD)-129 (0x81)
Формат : AC-3
Формат/Информация : Audio Coding 3
Параметр Endianness формата : Big
Режим смешивания : DVD-Video
Продолжительность : 16 м. 50 с.
Вид битрейта : Постоянный
Битрейт : 448 Кбит/сек
Каналы : 5 каналов
Расположение каналов : Front: L C R, Side: L R
Частота : 48,0 КГц
Частота кадров : 31,250 кадров/сек (1536 spf)
Битовая глубина : 16 бит
Метод сжатия : С потерями
Задержка видео : -252 мс.
Размер потока : 54,0 Мбайт (5%)
ServiceKind/String : Complete Main
Аудио #2
Идентификатор : 189 (0xBD)-138 (0x8A)
Формат : DTS
Формат/Информация : Digital Theater Systems
Режим : 16
Параметр Endianness формата : Big
Режим смешивания : DVD-Video
Продолжительность : 16 м. 50 с.
Вид битрейта : Постоянный
Битрейт : 755 Кбит/сек
Каналы : 5 каналов
Расположение каналов : Front: L C R, Side: L R
Частота : 48,0 КГц
Частота кадров : 93,750 кадра/сек (512 spf)
Битовая глубина : 24 бит
Метод сжатия : С потерями
Задержка видео : -306 мс.
Размер потока : 90,9 Мбайт (9%)
Аудио #3
Идентификатор : 189 (0xBD)-160 (0xA0)
Формат : PCM
Параметр Endianness формата : Big
Параметр Sign формата : Signed
Режим смешивания : DVD-Video
Продолжительность : 16 м. 50 с.
Вид битрейта : Постоянный
Битрейт : 1536 Кбит/сек
Каналы : 2 канала
Частота : 48,0 КГц
Битовая глубина : 16 бит
Задержка видео : -334 мс.
Размер потока : 185 Мбайт (18%)
Текст #1
Идентификатор : 189 (0xBD)-32 (0x20)
Формат : RLE
Формат/Информация : Run-length encoding
Режим смешивания : DVD-Video
Текст #2
Идентификатор : 189 (0xBD)-33 (0x21)
Формат : RLE
Формат/Информация : Run-length encoding
Режим смешивания : DVD-Video
Текст #3
Идентификатор : 189 (0xBD)-34 (0x22)
Формат : RLE
Формат/Информация : Run-length encoding
Режим смешивания : DVD-Video
Текст #4
Идентификатор : 189 (0xBD)-35 (0x23)
Формат : RLE
Формат/Информация : Run-length encoding
Режим смешивания : DVD-Video
Текст #5
Идентификатор : 189 (0xBD)-36 (0x24)
Формат : RLE
Формат/Информация : Run-length encoding
Режим смешивания : DVD-Video
Меню
Общее
Полное имя : D:\Sergei Prokofiev - L'Amour des trois Oranges (2007) [DVD9 NTSC]\image\L_AMOUR_DES_TROIS_ORANGES\VIDEO_TS\VTS_03_4.VOB
Формат : MPEG-PS
Размер файла : 1024 Мбайт
Продолжительность : 19 м. 46 с.
Режим общего битрейта : Переменный
Общий поток : 7240 Кбит/сек
Видео
Идентификатор : 224 (0xE0)
Формат : MPEG Video
Версия формата : Version 2
Профиль формата : Main@Main
Параметр BVOP формата : Да
Параметр матрицы формата : Выборочная
Параметр GOP формата : M=3, N=15
Структура изображения : Frame
Продолжительность : 19 м. 46 с.
Вид битрейта : Переменный
Битрейт : 4357 Кбит/сек
Максимальный битрейт : 9800 Кбит/сек
Ширина : 720 пикселей
Высота : 480 пикселей
Соотношение сторон : 16:9
Частота кадров : 29,970 (30000/1001) кадров/сек
Стандарт вещания : NTSC
Цветовое пространство : YUV
Субдискретизация насыщенности : 4:2:0
Битовая глубина : 8 бит
Тип развёртки : Чересстрочная
Порядок развёртки : Верхнее поле первое
Метод сжатия : С потерями
Бит/(Пиксели*Кадры) : 0.421
Размер потока : 616 Мбайт (60%)
Аудио #1
Идентификатор : 189 (0xBD)-129 (0x81)
Формат : AC-3
Формат/Информация : Audio Coding 3
Параметр Endianness формата : Big
Режим смешивания : DVD-Video
Продолжительность : 19 м. 46 с.
Вид битрейта : Постоянный
Битрейт : 448 Кбит/сек
Каналы : 5 каналов
Расположение каналов : Front: L C R, Side: L R
Частота : 48,0 КГц
Частота кадров : 31,250 кадров/сек (1536 spf)
Битовая глубина : 16 бит
Метод сжатия : С потерями
Задержка видео : -253 мс.
Размер потока : 63,4 Мбайт (6%)
ServiceKind/String : Complete Main
Аудио #2
Идентификатор : 189 (0xBD)-138 (0x8A)
Формат : DTS
Формат/Информация : Digital Theater Systems
Режим : 16
Параметр Endianness формата : Big
Режим смешивания : DVD-Video
Продолжительность : 19 м. 46 с.
Вид битрейта : Постоянный
Битрейт : 755 Кбит/сек
Каналы : 5 каналов
Расположение каналов : Front: L C R, Side: L R
Частота : 48,0 КГц
Частота кадров : 93,750 кадра/сек (512 spf)
Битовая глубина : 24 бит
Метод сжатия : С потерями
Задержка видео : -296 мс.
Размер потока : 107 Мбайт (10%)
Аудио #3
Идентификатор : 189 (0xBD)-160 (0xA0)
Формат : PCM
Параметр Endianness формата : Big
Параметр Sign формата : Signed
Режим смешивания : DVD-Video
Продолжительность : 19 м. 46 с.
Вид битрейта : Постоянный
Битрейт : 1536 Кбит/сек
Каналы : 2 канала
Частота : 48,0 КГц
Битовая глубина : 16 бит
Задержка видео : -328 мс.
Размер потока : 217 Мбайт (21%)
Текст #1
Идентификатор : 189 (0xBD)-32 (0x20)
Формат : RLE
Формат/Информация : Run-length encoding
Режим смешивания : DVD-Video
Продолжительность : 19 м. 39 с.
Задержка видео : 1 с. 835 мс.
Текст #2
Идентификатор : 189 (0xBD)-33 (0x21)
Формат : RLE
Формат/Информация : Run-length encoding
Режим смешивания : DVD-Video
Продолжительность : 19 м. 39 с.
Задержка видео : 1 с. 835 мс.
Текст #3
Идентификатор : 189 (0xBD)-34 (0x22)
Формат : RLE
Формат/Информация : Run-length encoding
Режим смешивания : DVD-Video
Продолжительность : 19 м. 39 с.
Задержка видео : 1 с. 835 мс.
Текст #4
Идентификатор : 189 (0xBD)-35 (0x23)
Формат : RLE
Формат/Информация : Run-length encoding
Режим смешивания : DVD-Video
Продолжительность : 19 м. 39 с.
Задержка видео : 1 с. 835 мс.
Текст #5
Идентификатор : 189 (0xBD)-36 (0x24)
Формат : RLE
Формат/Информация : Run-length encoding
Режим смешивания : DVD-Video
Продолжительность : 19 м. 39 с.
Задержка видео : 1 с. 835 мс.
Меню
Общее
Полное имя : D:\Sergei Prokofiev - L'Amour des trois Oranges (2007) [DVD9 NTSC]\image\L_AMOUR_DES_TROIS_ORANGES\VIDEO_TS\VTS_03_5.VOB
Формат : MPEG-PS
Размер файла : 1024 Мбайт
Продолжительность : 18 м. 58 с.
Режим общего битрейта : Переменный
Общий поток : 7541 Кбит/сек
Видео
Идентификатор : 224 (0xE0)
Формат : MPEG Video
Версия формата : Version 2
Профиль формата : Main@Main
Параметр BVOP формата : Да
Параметр матрицы формата : Выборочная
Параметр GOP формата : M=3, N=15
Структура изображения : Frame
Продолжительность : 18 м. 58 с.
Вид битрейта : Переменный
Битрейт : 4653 Кбит/сек
Максимальный битрейт : 9800 Кбит/сек
Ширина : 720 пикселей
Высота : 480 пикселей
Соотношение сторон : 16:9
Частота кадров : 29,970 (30000/1001) кадров/сек
Стандарт вещания : NTSC
Цветовое пространство : YUV
Субдискретизация насыщенности : 4:2:0
Битовая глубина : 8 бит
Тип развёртки : Чересстрочная
Порядок развёртки : Верхнее поле первое
Метод сжатия : С потерями
Бит/(Пиксели*Кадры) : 0.449
Размер потока : 632 Мбайт (62%)
Аудио #1
Идентификатор : 189 (0xBD)-129 (0x81)
Формат : AC-3
Формат/Информация : Audio Coding 3
Параметр Endianness формата : Big
Режим смешивания : DVD-Video
Продолжительность : 18 м. 58 с.
Вид битрейта : Постоянный
Битрейт : 448 Кбит/сек
Каналы : 5 каналов
Расположение каналов : Front: L C R, Side: L R
Частота : 48,0 КГц
Частота кадров : 31,250 кадров/сек (1536 spf)
Битовая глубина : 16 бит
Метод сжатия : С потерями
Задержка видео : -268 мс.
Размер потока : 60,8 Мбайт (6%)
ServiceKind/String : Complete Main
Аудио #2
Идентификатор : 189 (0xBD)-138 (0x8A)
Формат : DTS
Формат/Информация : Digital Theater Systems
Режим : 16
Параметр Endianness формата : Big
Режим смешивания : DVD-Video
Продолжительность : 18 м. 58 с.
Вид битрейта : Постоянный
Битрейт : 755 Кбит/сек
Каналы : 5 каналов
Расположение каналов : Front: L C R, Side: L R
Частота : 48,0 КГц
Частота кадров : 93,750 кадра/сек (512 spf)
Битовая глубина : 24 бит
Метод сжатия : С потерями
Задержка видео : -310 мс.
Размер потока : 102 Мбайт (10%)
Аудио #3
Идентификатор : 189 (0xBD)-160 (0xA0)
Формат : PCM
Параметр Endianness формата : Big
Параметр Sign формата : Signed
Режим смешивания : DVD-Video
Продолжительность : 18 м. 58 с.
Вид битрейта : Постоянный
Битрейт : 1536 Кбит/сек
Каналы : 2 канала
Частота : 48,0 КГц
Битовая глубина : 16 бит
Задержка видео : -334 мс.
Размер потока : 209 Мбайт (20%)
Текст #1
Идентификатор : 189 (0xBD)-32 (0x20)
Формат : RLE
Формат/Информация : Run-length encoding
Режим смешивания : DVD-Video
Продолжительность : 18 м. 58 с.
Задержка видео : 668 мс.
Текст #2
Идентификатор : 189 (0xBD)-33 (0x21)
Формат : RLE
Формат/Информация : Run-length encoding
Режим смешивания : DVD-Video
Продолжительность : 18 м. 58 с.
Задержка видео : 668 мс.
Текст #3
Идентификатор : 189 (0xBD)-34 (0x22)
Формат : RLE
Формат/Информация : Run-length encoding
Режим смешивания : DVD-Video
Продолжительность : 18 м. 58 с.
Задержка видео : 668 мс.
Текст #4
Идентификатор : 189 (0xBD)-35 (0x23)
Формат : RLE
Формат/Информация : Run-length encoding
Режим смешивания : DVD-Video
Продолжительность : 18 м. 58 с.
Задержка видео : 668 мс.
Текст #5
Идентификатор : 189 (0xBD)-36 (0x24)
Формат : RLE
Формат/Информация : Run-length encoding
Режим смешивания : DVD-Video
Продолжительность : 18 м. 58 с.
Задержка видео : 668 мс.
Меню
Общее
Полное имя : D:\Sergei Prokofiev - L'Amour des trois Oranges (2007) [DVD9 NTSC]\image\L_AMOUR_DES_TROIS_ORANGES\VIDEO_TS\VTS_03_6.VOB
Формат : MPEG-PS
Размер файла : 1024 Мбайт
Продолжительность : 16 м. 0 с.
Режим общего битрейта : Переменный
Общий поток : 8940 Кбит/сек
Видео
Идентификатор : 224 (0xE0)
Формат : MPEG Video
Версия формата : Version 2
Профиль формата : Main@Main
Параметр BVOP формата : Да
Параметр матрицы формата : Выборочная
Параметр GOP формата : M=3, N=15
Структура изображения : Frame
Продолжительность : 16 м. 0 с.
Вид битрейта : Переменный
Битрейт : 6023 Кбит/сек
Максимальный битрейт : 9800 Кбит/сек
Ширина : 720 пикселей
Высота : 480 пикселей
Соотношение сторон : 16:9
Частота кадров : 29,970 (30000/1001) кадров/сек
Стандарт вещания : NTSC
Цветовое пространство : YUV
Субдискретизация насыщенности : 4:2:0
Битовая глубина : 8 бит
Тип развёртки : Чересстрочная
Порядок развёртки : Верхнее поле первое
Метод сжатия : С потерями
Бит/(Пиксели*Кадры) : 0.582
Размер потока : 690 Мбайт (67%)
Аудио #1
Идентификатор : 189 (0xBD)-129 (0x81)
Формат : AC-3
Формат/Информация : Audio Coding 3
Параметр Endianness формата : Big
Режим смешивания : DVD-Video
Продолжительность : 16 м. 0 с.
Вид битрейта : Постоянный
Битрейт : 448 Кбит/сек
Каналы : 5 каналов
Расположение каналов : Front: L C R, Side: L R
Частота : 48,0 КГц
Частота кадров : 31,250 кадров/сек (1536 spf)
Битовая глубина : 16 бит
Метод сжатия : С потерями
Задержка видео : -230 мс.
Размер потока : 51,3 Мбайт (5%)
ServiceKind/String : Complete Main
Аудио #2
Идентификатор : 189 (0xBD)-138 (0x8A)
Формат : DTS
Формат/Информация : Digital Theater Systems
Режим : 16
Параметр Endianness формата : Big
Режим смешивания : DVD-Video
Продолжительность : 16 м. 0 с.
Вид битрейта : Постоянный
Битрейт : 755 Кбит/сек
Каналы : 5 каналов
Расположение каналов : Front: L C R, Side: L R
Частота : 48,0 КГц
Частота кадров : 93,750 кадра/сек (512 spf)
Битовая глубина : 24 бит
Метод сжатия : С потерями
Задержка видео : -304 мс.
Размер потока : 86,4 Мбайт (8%)
Аудио #3
Идентификатор : 189 (0xBD)-160 (0xA0)
Формат : PCM
Параметр Endianness формата : Big
Параметр Sign формата : Signed
Режим смешивания : DVD-Video
Продолжительность : 16 м. 0 с.
Вид битрейта : Постоянный
Битрейт : 1536 Кбит/сек
Каналы : 2 канала
Частота : 48,0 КГц
Битовая глубина : 16 бит
Задержка видео : -336 мс.
Размер потока : 176 Мбайт (17%)
Меню
Общее
Полное имя : D:\Sergei Prokofiev - L'Amour des trois Oranges (2007) [DVD9 NTSC]\image\L_AMOUR_DES_TROIS_ORANGES\VIDEO_TS\VTS_03_7.VOB
Формат : MPEG-PS
Размер файла : 532 Мбайт
Режим общего битрейта : Переменный
Видео
Идентификатор : 224 (0xE0)
Формат : MPEG Video
Версия формата : Version 2
Профиль формата : Main@Main
Параметр BVOP формата : Да
Параметр матрицы формата : Выборочная
Параметр GOP формата : M=3, N=15
Структура изображения : Frame
Вид битрейта : Переменный
Максимальный битрейт : 9800 Кбит/сек
Ширина : 720 пикселей
Высота : 480 пикселей
Соотношение сторон : 16:9
Частота кадров : 29,970 (30000/1001) кадров/сек
Стандарт вещания : NTSC
Цветовое пространство : YUV
Субдискретизация насыщенности : 4:2:0
Битовая глубина : 8 бит
Тип развёртки : Чересстрочная
Порядок развёртки : Верхнее поле первое
Метод сжатия : С потерями
Аудио #1
Идентификатор : 189 (0xBD)-129 (0x81)
Формат : AC-3
Формат/Информация : Audio Coding 3
Параметр Endianness формата : Big
Режим смешивания : DVD-Video
Вид битрейта : Постоянный
Битрейт : 448 Кбит/сек
Каналы : 5 каналов
Расположение каналов : Front: L C R, Side: L R
Частота : 48,0 КГц
Частота кадров : 31,250 кадров/сек (1536 spf)
Битовая глубина : 16 бит
Метод сжатия : С потерями
Задержка видео : -272 мс.
ServiceKind/String : Complete Main
Аудио #2
Идентификатор : 189 (0xBD)-138 (0x8A)
Формат : DTS
Формат/Информация : Digital Theater Systems
Режим : 16
Параметр Endianness формата : Big
Режим смешивания : DVD-Video
Вид битрейта : Постоянный
Битрейт : 755 Кбит/сек
Каналы : 5 каналов
Расположение каналов : Front: L C R, Side: L R
Частота : 48,0 КГц
Частота кадров : 93,750 кадра/сек (512 spf)
Битовая глубина : 24 бит
Метод сжатия : С потерями
Задержка видео : -304 мс.
Аудио #3
Идентификатор : 189 (0xBD)-160 (0xA0)
Формат : PCM
Параметр Endianness формата : Big
Параметр Sign формата : Signed
Режим смешивания : DVD-Video
Вид битрейта : Постоянный
Битрейт : 1536 Кбит/сек
Каналы : 2 канала
Частота : 48,0 КГц
Битовая глубина : 16 бит
Задержка видео : -333 мс.
Меню
[Торрент-статистика]
[Профиль]  [ЛС] 
Показать сообщения:    
Ответить на тему

Текущее время: Сегодня 13:23

Часовой пояс: GMT + 4



Вы не можете начинать темы
Вы не можете отвечать на сообщения
Вы не можете редактировать свои сообщения
Вы не можете удалять свои сообщения
Вы не можете голосовать в опросах
Вы не можете прикреплять файлы к сообщениям
Вы не можете скачивать файлы