Концерт памяти Дианы / Concert for Diana [2007 г., документальный, музыка, концерт, 2хDVD9]

Ответить на тему
 
Автор
Сообщение

ttan ®

Пол:

Стаж: 5 лет 6 месяцев

Сообщений: 610

Репутация: 370 [+] [-]

Откуда: где - то на Севере ...

Пост 09-Дек-2013 01:01

[Цитировать] 

Концерт памяти Дианы /Concert for Diana (2007) 2xDVD9- Год выпуска: 2007
Страна: Великобритания
Жанр: документальный, музыка, концерт
Продолжительность: 2x дисков ~ 02:05:05
Режиссер: Janet Fraser-Crook, Сэлли Норрис, Клер Попплуэлл
Субтитры: Английские, французские, немецкие, португальские, испанские
Исполнители: Элтон Джон, "Duran Duran", Джеймс Моррисон, Лили Аллен, "The Feeling", Нэлли Фуртадо, "Status Quo", Джосс Стоун, Роджер Ходжсон, "", Том Джонс, Уилл Янг, Наташа Бедингфилд, Брайан Ферри, Андреа Бочелли, Сара Брайтман, Джош Гробан, Джейсон Донован, Род Стюарт, Канье Уэст, "Take That", Fergie, Sean "P. Diddy" Combs, Фарелл Уильямс, Джо Перри, Anastacia, Донни Осмонд
Описание: На лондонском стадионе "Уэмбли" (Wembley) 1 июля 2007 году, в год 10-й годовщины со дня смерти принцессы Дианы, прошел грандиозный концерт в память о принцессе Уэльской Диане (Lady Di), который продлился около шести часов.
Действие было приурочено ко дню рождения покойной принцессы - 1 июля ей бы исполнилось 46 . Кроме того, в 2007 году отмечается десять гибели принцессы Уэльской. Главными организаторами события стали сыновья Дианы - принцы Уильям (William) и Гарри (Harry). Концерт посетило более 60,000 человек.
Перед началом концерта Гарри и Уильям выступили со сцены. Первый поприветствовал собравшихся словами "Привет, 'Уэмбли'", а второй пояснил, что мероприятие посвящено "всему, что наша мама любила в жизни - ее музыке, ее танцам, ее благотворительным оганизациям и ее семье и друзьям".

Доп.информация

Шестичасовой музыкальный марафон открыл Элтон Джон, исполнивший "Твою песню" (Your song). Среди прочих в концерте приняли участие любимые группы Дианы Duran Duran и Supertramp, а также Status Quo, , Род Стюарт (Rod Stewart), Джеймс Моррисон (James Morrison), Лили Аллен (Lily Allen), Брайан Ферри (Bryan Ferry) и другие. Композитор Эндрю Ллойд Уеббер (Andrew Lloyd Webber) исполнил попурри из фрагментов своих мюзиклов.
Мероприятие проходило при повышенных мерах безопасности в связи с попытками терактов в Великобритании в то время. Финальной песней стала "Свеча на ветру" (Candle in the wind) Элтона Джона, которую он исполнял на похоронах Дианы.
Диана Спенсер вышла замуж за наследника британского престола Принца Уэльского Чарльза в 1981 году. Через 11 они разошлись, а в 1996 году официально развелись. 31 августа 1997 года автомобиль, в котором находилась Диана и ее друг Доди аль-Файед, разбился в одном из автомобильных тоннелей в Париже. 1 июля 2007 года принцессе исполнилось бы 46 .
Мега-концерт памяти принцессы Дианы потряс Лондон.
Concert for Diana (рус. Концерт для Дианы) — концерт, организованный в честь Дианы, принцессы Уэльской. Он состоялся на новом стадионе Уэмбли (который был сдан в эксплуатацию 9 марта 2007 года) в Лондоне, 1 июля 2007 года.
Концерт транслировался в 140 различных странах мира, с потенциальной аудиторией, насчитывающей 500 миллионов человек. В декабре 2006 года 22 500 билетов поступили в продажу, все они были распроданы всего за 17 минут, в общей сложности на стадион Уэмбли пришли 63 000 человек, чтобы увидеть шоу и почтить память Дианы. В конце шоу, было показано смонтированное видео с кадрами маленькой Дианы, оно транслировалось под аккомпанемент песни Queen «These Are the Days of Our Lives».
Концерт начался в 16:00 (по британскому летнему времени) и закончили примерно в 22:15 — во время концерта были две короткие паузы.
2-дисковое издание, содержащее полную версию концерта было выпущено на DVD 5 ноября 2007 года. Издание концерта на Blu-ray, включающее полную версию шоу и документальный фильм, поступило в продажу в ноябре 2008 года.
Тип релиза: DVD9
Контейнер: DVD Video
Видео кодек: MPEG1
Аудио кодек: AC3 (Dolby Digital)
Видео: 720 x 480 (1.778) at 29.970 fps/MPEG Video at 5456 Кбит/сек
Аудио 1: AC-3 at 384 Кбит/сек/2 канала(ов), 48,0 КГц
Аудио 2: AC-3 at 448 Кбит/сек/6 канала(ов), 48,0 КГц

Содержание дисков

DVD-1

01. Elton John - Your Song
02. Prince William and Prince Harry - Introduction
03. Duran Duran - Sunrise
04. Duran Duran - Wild Boys
05. Duran Duran - Rio
06. James Morrison - You Give Me Something
07. James Morrison - Wonderful World
08. Professor Sir Magdi and Lisa Yacoub [Diana and Me]
09. Lily Allen - LDN
10. Lily Allen - Smile
11. Doug Smith [Diana and Me] - Luton Indoor Bowling Club
12. Fergie - Glamorous
13. Fergie - Big Girls Don't Cry (Personal)
14. Clark Denmark [Diana and Me] British Deaf Association
15. The Feeling - Fill My Little World
16. The Feeling - Love It When You Call
17. Gemma Quinn [Diana and Me] - Spinal Research
18. Pharrell Williams - Drop It Like It's Hot
19. Pharrell Williams - She Wants To Move
20. Mike Whitlam & Sandra Tigica [Diana and Me] - British and Angolan Red Cross
21. Nelly Furtado - Say It Right
22. Nelly Furtado - I'm Like A Bird
23. Nelly Furtado - Maneater
24. Various Artists [Diana and Me] - Diana & Ballet
25. English National Ballet - Swan Lake
26. Status Quo - Rocking All Over The World
27. Colin Dawson [Diana and Me] - Thorpe Park
28. Joss Stone - You Had Me
29. Joss Stone - Under Pressure
30. Roger Hodgson - Dreamer
31. Roger Hodgson - The Logical Song
32. Roger Hodgson - Breakfast In America
33. Roger Hodgson - Give A Little Bit
34. Audrey Watson [Diana and Me] - Turning Point
35. - Happiness
36. - No Tomorrow
37. Ruth Sims and Jonathan Grimshaw [Diana and Me] - National Aids Trust and Mildmay Mission Hospital
38. Tom Jones - Kiss
39. Tom Jones - I Bet You Look Good On The Dancefloor
40. Joss Stone and Tom Jones - Ain't That A Lot Of Love
41. Will Young - Switch It On
42. Natasha Bedingfield - Unwritten

DVD-2

01. Chris Anderson and Anne Grindrod [Diana and Me] - Seeability
02. Bryan Ferry - Slave To Love
03. Bryan Ferry - Make You Feel My Love
04. Bryan Ferry - Let's Stick Together
05. Michael Ball, Andrew Lloyd Webber, Sarah Brightman, Elaine Paige [Diana and Me] - Diana and Musicals
06. Anastacia - Jesus Superstar
07. Andrea Ross and Connie Fisher - Memory
08. Andrea Bocelli - The Music Of The Night
09. Sarah Brightman and Josh Groban - All I Ask Of You
10. Donny Osmond, Jason Donovan and Lee Mead - Any Dream Will Do
11. Rod Stewart - Maggie May
12. Rod Stewart - Baby
13. Rod Stewart - Sailing
14. Various Artists [Diana and Me] - Diana and Photographers
15. Kanye West - Gold Digger
16. Kanye West - Touch The Sky
17. Kanye West - Stronger
18. Kanye West - Diamonds From Sierra Leone
19. Kanye West - Jesus Walks
20. Various Artists [Diana and Me] - Spinal Research
21. Sean P. Diddy Combs - I'll Be Missing You
22. Various Artists [Diana and Me] - Great Ormond Street Hospital
23. Take That - Shine
24. Take That - Patience
25. Take That - Back For Good
26. Various Artists [Diana and Me] - London Symphony Chorus
27. Ricky Gervais - Ricky Gervais
28. Elton John - Saturday Night's Alright For Fighting
29. Elton John - Tiny Dancer
30. Elton John - Are You Ready For Love
31. Prince William, Prince Harry - Introduction
32. Various Artists - Diana Film
Идентификатор : 224 (0xE0)
Формат : MPEG Vi

MediaInfo Report

MediaInfo DVD-1

Видео
Идентификатор : 224 (0xE0)
Формат : MPEG Video
Версия формата : Version 2
Профиль формата : Main@Main
Параметр BVOP формата : Да
Параметр матрицы формата : По умолчанию
Продолжительность : 22 м.
Вид битрейта : Переменный
Битрейт : 5456 Кбит/сек
Ширина : 720 пикс.
Высота : 480 пикс.
Соотношение сторон : 16:9
Частота кадров : 29,970 кадр/сек
Стандарт вещания : NTSC
Цветовое пространство : YUV
Подвыборка цветности : 4:2:0
Битовая глубина : 8 бит
Метод сжатия : С потерями
Бит/(Пиксели*Кадры) : 0.527
Размер потока : 871 Мбайт (85%)
Аудио #1
Идентификатор : 128 (0x80)
Формат : AC-3
Формат/Информация : Audio Coding 3
Расширение режима : CM (complete main)
Продолжительность : 22 м.
Вид битрейта : Постоянный
Битрейт : 384 Кбит/сек
Канал(ы) : 2 канала(ов)
Расположение каналов : Front: L R
Частота : 48,0 КГц
Битовая глубина : 16 бит
Метод сжатия : С потерями
Задержка видео : -49 мс.
Размер потока : 61,3 Мбайт (6%)
Аудио #2
Идентификатор : 129 (0x81)
Формат : AC-3
Формат/Информация : Audio Coding 3
Расширение режима : CM (complete main)
Продолжительность : 22 м.
Вид битрейта : Постоянный
Битрейт : 448 Кбит/сек
Канал(ы) : 6 канала(ов)
Расположение каналов : Front: L C R, Side: L R, LFE
Частота : 48,0 КГц
Битовая глубина : 16 бит
Метод сжатия : С потерями
Задержка видео : -49 мс.
Размер потока : 71,5 Мбайт (7%)
Текст #1
Идентификатор : 32 (0x20)
Формат : RLE
Формат/Информация : Run-length encoding
Текст #2
Идентификатор : 33 (0x21)
Формат : RLE
Формат/Информация : Run-length encoding
Текст #3
Идентификатор : 34 (0x22)
Формат : RLE
Формат/Информация : Run-length encoding
Текст #4
Идентификатор : 35 (0x23)
Формат : RLE
Формат/Информация : Run-length encoding
Текст #5
Идентификатор : 36 (0x24)
Формат : RLE
Формат/Информация : Run-length encoding

MediaInfo DVD-2

Видео
Идентификатор : 224 (0xE0)
Формат : MPEG Video
Версия формата : Version 2
Профиль формата : Main@Main
Параметр BVOP формата : Да
Параметр матрицы формата : По умолчанию
Параметры GOP формата : M=2, N=12
Продолжительность : 21 м.
Вид битрейта : Переменный
Битрейт : 5593 Кбит/сек
Номинальный битрейт : 9800 Кбит/сек
Ширина : 720 пикс.
Высота : 480 пикс.
Соотношение сторон : 16:9
Частота кадров : 29,970 кадр/сек
Стандарт вещания : NTSC
Цветовое пространство : YUV
Подвыборка цветности : 4:2:0
Битовая глубина : 8 бит
Тип развёртки : Чересстрочная
Порядок развёртки : Верхнее поле первое
Метод сжатия : С потерями
Бит/(Пиксели*Кадры) : 0.540
Размер потока : 873 Мбайт (85%)
Аудио #1
Идентификатор : 128 (0x80)
Формат : AC-3
Формат/Информация : Audio Coding 3
Расширение режима : CM (complete main)
Продолжительность : 21 м.
Вид битрейта : Постоянный
Битрейт : 384 Кбит/сек
Канал(ы) : 2 канала(ов)
Расположение каналов : Front: L R
Частота : 48,0 КГц
Битовая глубина : 16 бит
Метод сжатия : С потерями
Задержка видео : -507 мс.
Размер потока : 60,0 Мбайт (6%)
Аудио #2
Идентификатор : 129 (0x81)
Формат : AC-3
Формат/Информация : Audio Coding 3
Расширение режима : CM (complete main)
Продолжительность : 21 м.
Вид битрейта : Постоянный
Битрейт : 448 Кбит/сек
Канал(ы) : 6 канала(ов)
Расположение каналов : Front: L C R, Side: L R, LFE
Частота : 48,0 КГц
Битовая глубина : 16 бит
Метод сжатия : С потерями
Задержка видео : -507 мс.
Размер потока : 70,0 Мбайт (7%)
Текст #1
Идентификатор : 32 (0x20)
Формат : RLE
Формат/Информация : Run-length encoding
Текст #2
Идентификатор : 33 (0x21)
Формат : RLE
Формат/Информация : Run-length encoding
Текст #3
Идентификатор : 34 (0x22)
Формат : RLE
Формат/Информация : Run-length encoding
Текст #4
Идентификатор : 35 (0x23)
Формат : RLE
Формат/Информация : Run-length encoding
Текст #5
Идентификатор : 36 (0x24)
Формат : RLE
Формат/Информация : Run-length encodin

_________________


Последний раз редактировалось: ttan (2016-11-20 03:17), всего редактировалось 2 раз(а)
[Торрент-статистика]
[Профиль]  [ЛС] 

3rikovi4

Пол:

Стаж: 6 лет

Сообщений: 1198

Репутация: 1049 [+] [-]

Откуда: Бывший СССР

Пост 09-Дек-2013 14:13 (спустя 13 часов)

[Цитировать] 

Уже на музыку перешли. Похвально, похвально! +2 за труды!

_________________
Не стоит прогибаться под изменчивый мир. Пусть лучше он прогнётся под нас!
[Торрент-статистика]
[Профиль]  [ЛС] 
Показать сообщения:    
Ответить на тему

Текущее время: Сегодня 17:18

Часовой пояс: GMT + 4



Вы не можете начинать темы
Вы не можете отвечать на сообщения
Вы не можете редактировать свои сообщения
Вы не можете удалять свои сообщения
Вы не можете голосовать в опросах
Вы не можете прикреплять файлы к сообщениям
Вы не можете скачивать файлы