Фитнес для лица с Аленой Россошинской / 1-сезон [2011 г.] (Живи ТВ)

Ответить на тему
 
Автор
Сообщение

sota767 ®

Пол:

Стаж: 8 лет 7 месяцев

Сообщений: 313

Репутация: 226 [+] [-]

Откуда: Нижний Новгород

Пост 01-Ноя-2013 19:22

[Цитировать] 

Фитнес для лица с Аленой Россошинской 1-сезон
Производитель: Живи ТВ Россия
Год выпуска: 2011
Язык: русский
Описание: Авторский комплекс для лица, шеи и осанки разработан с учетом рекомендаций косметологов. Упражнения оздоровляют структуру кожи, делают ее более упругой, помогают избавиться от второго подбородка и мелких морщин. Комплекс упражнений поможет сохранить молодость и красоту, не прибегая к специальной косметике и дорогостоящим процедурам.
Фейсбилдинг — это косметическая гимнастика, комплекс запатентованных упражнений, с помощью которых возможно разгладить морщины, сделать кожу более упругой. Этот вид фитнеса появился в 1950-е годы, когда немецкий пластический хирург Рейнхольд Бенц заявил, что мышцы лица можно тренировать так же, как любые другие.
Видео: 640x480 (2,35:1) DivX 5, 29.970 fps ~1 200 Kbps avg, 0.130 bit/pixel
Аудио: MPEG Audio Layer 3 44100Hz stereo 64 kbps

MI

Код:
General
Complete name                    : I:\Видео - фитнес\Фитнес для лица\18-Фитнес для лица_2011-03-25
L.avi
Format                           : AVI
Format/Info                      : Audio Video Interleave
File size                        : 119 MiB
Duration                         : 12mn 59s
Overall bit rate                 : 1 276 Kbps
Writing library                  : VirtualDub build 18160/release
Video
ID                               : 0
Format                           : MPEG-4 Visual
Format profile                   : Simple@L1
Format settings, BVOP            : No
Format settings, QPel            : No
Format settings, GMC             : No warppoints
Format settings, Matrix          : Default (H.263)
Codec ID                         : DX50
Codec ID/Hint                    : DivX 5
Duration                         : 12mn 59s
Bit rate                         : 1 200 Kbps
Width                            : 640 pixels
Height                           : 480 pixels
Display aspect ratio             : 4:3
Frame rate                       : 29.970 fps
Resolution                       : 24 bits
Colorimetry                      : 4:2:0
Scan type                        : Progressive
Bits/(Pixel*Frame)               : 0.130
Stream size                      : 112 MiB (94%)
Writing library                  : Lavc51.40.4
Audio
ID                               : 1
Format                           : MPEG Audio
Format version                   : Version 1
Format profile                   : Layer 3
Format_Settings_Mode             : Joint stereo / MS Stereo
Codec ID                         : 55
Codec ID/Hint                    : MP3
Duration                         : 12mn 59s
Bit rate mode                    : Constant
Bit rate                         : 64.0 Kbps
Channel(s)                       : 2 channels
Sampling rate                    : 44.1 KHz
Resolution                       : 16 bits
Video delay                      : 3ms
Stream size                      : 5.95 MiB (5%)
Alignment                        : Split accross interleaves
Interleave, duration             : 33 ms (1.00 video frame)
Interleave, preload duration     : 500 ms

Скриншоты


_________________
Когда- то я была ангелом...Потом потеряла крылья и пересела на метлу...А что? И скорость повыше и тюнинг в перспективе.
причиняю пользу, наношу добро
[Торрент-статистика]
[Профиль]  [ЛС] 

lsdonezk

Стаж: 2 года

Сообщений: 1

Репутация: 0 [+] [-]

Пост 28-Ноя-2018 00:16 (спустя 5 лет)

[Цитировать] 

Раздайте пожалуйста
[Торрент-статистика]
[Профиль]  [ЛС] 
Показать сообщения:    
Ответить на тему

Текущее время: Сегодня 04:51

Часовой пояс: GMT + 4



Вы не можете начинать темы
Вы не можете отвечать на сообщения
Вы не можете редактировать свои сообщения
Вы не можете удалять свои сообщения
Вы не можете голосовать в опросах
Вы не можете прикреплять файлы к сообщениям
Вы не можете скачивать файлы