FaceЛифтинг с Галиной Дубининой / 1-й сезон [2009 г.] (Тонус ТВ)

Ответить на тему
 
Автор
Сообщение

sota767 ®

Пол:

Стаж: 8 лет 7 месяцев

Сообщений: 313

Репутация: 226 [+] [-]

Откуда: Нижний Новгород

Пост 01-Ноя-2013 17:13

[Цитировать] 

FaceЛифтинг с Галиной Дубининой 1-й сезон
Производитель: Тонус ТВ Россия
Год выпуска: 2009
Язык: русский
Описание: «Когда исполнилось 30, начала замечать, что появляются морщины. Косметические процедуры давали лишь временный эффект и в большинстве случаев оказывались пустой тратой денег. В одном журнале мне попалась статья Кэрол Мадджио, автора метода Facercise, в которой описывался комплекс упражнений для лица. Я заинтересовалась, стала консультироваться с косметологами и даже пластическими хирургами. Что-то взяла из йоги, что-то из медицины, что-то из актерского искусства. Так и появился на свет FaceForming»,— рассказывает Галина. Разработкой собственной методики она занялась в 2004-м. На базе клуба Top Gym собрала экспериментальную группу, в которую входили женщины старше 40 лет. Результаты поразили всех: в первый же месяц занятий у половины группы разгладились морщины и улучшился цвет лица.
Видео: 640x356 (16:9) XviD, 25,000 fps ~595 Kbps avg, 0.104 bit/pixel
Аудио: MPEG Audio Layer 3 44100 Hz stereo 128 kbps

MI

Код:
General
Complete name                    : I:\Видео - фитнес\галина дубинина\для усталых глаз.avi
Format                           : AVI
Format/Info                      : Audio Video Interleave
File size                        : 18.4 MiB
Duration                         : 3mn 29s
Overall bit rate                 : 735 Kbps
Writing application              : MEncoder SVN-r30881(20100311-gcc4.3.3)
Writing library                  : MPlayer
Video
ID                               : 0
Format                           : MPEG-4 Visual
Format profile                   : AdvancedSimple@L5
Format settings, BVOP            : Yes
Format settings, QPel            : No
Format settings, GMC             : No warppoints
Format settings, Matrix          : Default (H.263)
Codec ID                         : XVID
Codec ID/Hint                    : XviD
Duration                         : 3mn 29s
Bit rate                         : 595 Kbps
Width                            : 640 pixels
Height                           : 356 pixels
Display aspect ratio             : 16:9
Frame rate                       : 25.000 fps
Resolution                       : 24 bits
Colorimetry                      : 4:2:0
Scan type                        : Progressive
Bits/(Pixel*Frame)               : 0.104
Stream size                      : 14.9 MiB (81%)
Writing library                  : XviD 1.2.1 (UTC 2008-12-04)
Audio
ID                               : 1
Format                           : MPEG Audio
Format version                   : Version 1
Format profile                   : Layer 3
Format_Settings_Mode             : Joint stereo / MS Stereo
Codec ID                         : 55
Codec ID/Hint                    : MP3
Duration                         : 3mn 29s
Bit rate mode                    : Constant
Bit rate                         : 128 Kbps
Channel(s)                       : 2 channels
Sampling rate                    : 44.1 KHz
Resolution                       : 16 bits
Video delay                      : 40ms
Stream size                      : 3.20 MiB (17%)
Alignment                        : Aligned on interleaves
Interleave, duration             : 26 ms (0.65 video frame)
Interleave, preload duration     : 522 ms

Скриншоты


_________________
Когда- то я была ангелом...Потом потеряла крылья и пересела на метлу...А что? И скорость повыше и тюнинг в перспективе.
причиняю пользу, наношу добро
[Торрент-статистика]
[Профиль]  [ЛС] 
Показать сообщения:    
Ответить на тему

Текущее время: Сегодня 00:42

Часовой пояс: GMT + 4



Вы не можете начинать темы
Вы не можете отвечать на сообщения
Вы не можете редактировать свои сообщения
Вы не можете удалять свои сообщения
Вы не можете голосовать в опросах
Вы не можете прикреплять файлы к сообщениям
Вы не можете скачивать файлы