Ковчег / Корабль / El Barco / Сезон: 1 (ПОЛНЫЙ) / Серии: 1-13 (13) (Фернандо Гонзалез Молина) [2011 г., Испания, Фантастика, драма, приключения, HDTVRip] (Axn Sci Fi)

Ответить на тему
 
Автор
Сообщение

TYAnCE ®

Пол:

Стаж: 5 лет 8 месяцев

Сообщений: 269

Репутация: 65 [+] [-]

Откуда: Туапсе

Пост 12-Авг-2012 19:18

[Цитировать] 

Ковчег / El Barco
Год выпуска: 2011
Страна: Испания
Жанр: Фантастика, драма, приключения
Продолжительность: 1 час 15 мин
Перевод: Профессиональный многоголосый закадровый (Axn Sci Fi)
Субтитры: нет
Режиссёр: Фернандо Гонзалез Молина, Дэвид Молина-В ролях: Хуан Хосе Артеро, Марио Касас, Бланка Суарез, Ирен Монтала, Луис Каледжо, Нюс Санс
Описание: Мировая катастрофа вызывает катаклизм, который ведет к исчезновению Земли. На планете, наводненной водой, члены экипажа учебного корабля кажутся единственными оставшимися в живых людьми.-Качество: HDTVRip
Формат: AVI
Видео кодек: XviD
Аудио кодек: MP3
Видео: 720x400 (1.80:1), 23.976 fps, XviD build 64 ~1467 kbps avg, 0.21 bit/pixel
Аудио Rus: 48 kHz, MPEG Layer 3, 2 ch, ~128.00 kbps avg
Аудио Spa: 48 kHz, MPEG Layer 3, 2 ch, ~128.00 kbps avg-Релиз:
Озвучка: Axn Sci Fi
Звук предоставил: baggio
Подготовка видео: koss
Работа со звуком: baggio
Постер: vortex- -

MI

General
Complete name : C:\Users\Administrator\Downloads\El Barco Season 1\El.barco.s01e01.hdtvrip.NewStudio.TV.avi
Format : AVI
Format/Info : Audio Video Interleave
File size : 1 000 MiB
Duration : 1h 17mn
Overall bit rate : 1 793 Kbps
Writing application : VirtualDubMod 1.5.10.2 (build 2540/release)
Writing library : VirtualDubMod build 2540/release
Video

ID : 0
Format : MPEG-4 Visual
Format profile : Advanced Simple@L5
Format settings, BVOP : 2
Format settings, QPel : No
Format settings, GMC : No warppoints
Format settings, Matrix : Default (MPEG)
Codec ID : XVID
Codec ID/Hint : XviD
Duration : 1h 17mn
Bit rate : 1 522 Kbps
Width : 720 pixels
Height : 400 pixels
Display aspect ratio : 16:9
Frame rate : 25.000 fps
Color space : YUV
Chroma subsampling : 4:2:0
Bit depth : 8 bits
Scan type : Progressive
Compression mode : Lossy
Bits/(Pixel*Frame) : 0.211
Stream size : 849 MiB (85%)
Writing library : XviD 64
Audio #1
ID : 1
Format : MPEG Audio
Format version : Version 1
Format profile : Layer 3
Mode : Joint stereo
Mode extension : MS Stereo
Codec ID : 55
Codec ID/Hint : MP3
Duration : 1h 17mn
Bit rate mode : Constant
Bit rate : 128 Kbps
Channel(s) : 2 channels
Sampling rate : 48.0 KHz
Compression mode : Lossy
Stream size : 71.4 MiB (7%)
Alignment : Aligned on interleaves
Interleave, duration : 40 ms (1.00 video frame)
Interleave, preload duration : 504 ms
Audio #2
ID : 2
Format : MPEG Audio
Format version : Version 1
Format profile : Layer 3
Mode : Joint stereo
Mode extension : MS Stereo
Codec ID : 55
Codec ID/Hint : MP3
Duration : 1h 17mn
Bit rate mode : Constant
Bit rate : 128 Kbps
Channel(s) : 2 channels
Sampling rate : 48.0 KHz
Compression mode : Lossy
Stream size : 71.4 MiB (7%)
Alignment : Aligned on interleaves
Interleave, duration : 40 ms (1.00 video frame)
Interleave, preload duration : 504 ms

Список серий

Un millón de millas
Echando la caña
El fantasma pirata
Un mundo bajo el mar
El graznido
Elecciones
Perdidos
Pesca mayor
Un punto en el radar
Niebla
La ley del mar
El hombre de Liverpool
Esperando un milagro

Скриншоты


_________________


Последний раз редактировалось: TYAnCE (2012-10-02 18:00), всего редактировалось 1 раз
[Торрент-статистика]
[Профиль]  [ЛС] 

AlexusA

Пол:

Стаж: 5 лет 6 месяцев

Сообщений: 223

Репутация: 45 [+] [-]

Откуда: Нижний Новгород

Пост 25-Сен-2012 09:34 (спустя 1 месяц 12 дней)

[Цитировать] 

мда... Задумка 5+, исполнение хромает. Вторую половину сериала все сопли проматывать мышой надо... Тогда смотребильно ab

_________________
[Торрент-статистика]
[Профиль]  [ЛС] 
Показать сообщения:    
Ответить на тему

Текущее время: Сегодня 00:09

Часовой пояс: GMT + 4



Вы не можете начинать темы
Вы не можете отвечать на сообщения
Вы не можете редактировать свои сообщения
Вы не можете удалять свои сообщения
Вы не можете голосовать в опросах
Вы не можете прикреплять файлы к сообщениям
Вы не можете скачивать файлы