Декстер / Dexter (Сезон 8, Серии 1-8 из 12) (Джон Дал / John Dahl ...) [2013 г.] (Триллер, Драма, Криминал) [HDTVRip] (MVO) [LostFilm] [обновляемая]

Ответить на тему
 
Автор
Сообщение

kogesan ®

Стаж: 9 лет 4 месяца

Сообщений: 7

Репутация: 15 [+] [-]

Пост 21-Авг-2013 15:06

[Цитировать] 

Декстер / Dexter
«Takes life. Seriously.»
- Русское название: Декстер
Оригинальное название: Dexter
Страна: США
Год выпуска: 2012
Жанр: Триллер, Драма, Криминал-Озвучка: Студия LostFilm
Перевод: Многоголосый закадровый, профессиональный-Режиссер: Джон Дал / John Dahl, Стив Шилл / Steve Shill,
Скотт Бак / Scott Buck ...
В главных ролях: Майкл С. Холл, Дженнифер Карпентер, Джеймс Ремар, Лорен Велез, Дэвид Зайяс, К.С. Ли, Джули Бенц, Десмонд Харрингтон, Эрик Кинг, Кристиан Камарго, Кит Кэрредин, Джейми Мюррэй, Джимми Смитс ...-Описание фильма:
Я - всё еще Декстер. Декстер Морган. И я по-прежнему убиваю людей. Но после всего, через что мне пришлось пройти - я не могу больше жить так, как раньше. Я многое понял, многое переосмыслил.. и когда-нибудь я пойму, кто я на самом деле. Одно я знаю точно - я больше не одинок. Мне больше не нужен кодекс Гарри. Мне нужен свой, собственный кодекс. Мой отец не одобрил бы этого - но я больше не его ученик. Я стал мастером... Идея воплотилась в жизнь.-Сезон: 8
Серии: 8 из 12 серий
Продолжительность: ~ 00:53:00 мин серия-Качество видео: HDTVRip
Формат: AVI
Видеокодек: XviD
Аудиокодек: Mp3
Видео: MPEG-4 Visual at 1296 Кбит/сек, 720 x 400 (1.800) at 23.976 fps
Аудио: MPEG Audio at 192 Кбит/сек, 2 канала, 48,0 КГц
- -

Список серий:

  • Прекрасный день (A Beautiful Day)
  • Нет худа без добра (Every Silver Lining)
  • Что гложет Декстера Моргана? (What's Eating Dexter Morgan?)
  • Рубцовая ткань (Scar Tissue)
  • Первый негритёнок (This Little Piggy)
  • Немного размышлений (A Little Reflection)
  • Форма одежды (Dress Code)
  • Мы уже приехали? (Are We There Yet?)
-

MediaInfo:

Код:
Общее
Полное имя                               : E:\_Сериалы\Декстер (Dexter)\Dexter 8 - LostFilm.TV\Dexter.S08E01.rus.LostFilm.TV.avi
Формат                                   : AVI
Формат/Информация                        : Audio Video Interleave
Размер файла                             : 575 Мбайт
Продолжительность                        : 53 м.
Режим общего битрейта                    : Переменный
Общий поток                              : 1497 Кбит/сек
Программа кодирования                    : Nandub v1.0rc2
Библиотека кодирования                   : Nandub build 1853/release
Видео
Идентификатор                            : 0
Формат                                   : MPEG-4 Visual
Профиль формата                          : Simple@L3
Параметр BVOP формата                    : Нет
Параметр QPel формата                    : Нет
Параметр GMC формата                     : Без точки перехода
Параметр матрицы формата                 : Default (H.263)
Идентификатор кодека                     : XVID
Идентификатор кодека/Подсказка           : XviD
Продолжительность                        : 53 м.
Битрейт                                  : 1296 Кбит/сек
Ширина                                   : 720 пикселей
Высота                                   : 400 пикселей
Соотношение сторон                       : 16:9
Частота кадров                           : 23,976 кадра/сек
Цветовое пространство                    : YUV
Субдискретизация насыщенности            : 4:2:0
Битовая глубина                          : 8 бит
Тип развёртки                            : Прогрессивная
Метод сжатия                             : С потерями
Бит/(Пиксели*Кадры)                      : 0.188
Размер потока                            : 498 Мбайт (87%)
Библиотека кодирования                   : XviD 1.2.1 (UTC 2008-12-04)
Аудио
Идентификатор                            : 1
Формат                                   : MPEG Audio
Версия формата                           : Version 1
Профиль формата                          : Layer 3
Режим                                    : Joint stereo
Расширение режима                        : MS Stereo
Идентификатор кодека                     : 55
Идентификатор кодека/Подсказка           : MP3
Продолжительность                        : 53 м.
Вид битрейта                             : Переменный
Битрейт                                  : 192 Кбит/сек
Каналы                                   : 2 канала
Частота                                  : 48,0 КГц
Метод сжатия                             : С потерями
Размер потока                            : 72,4 Мбайт (13%)
Выравнивание                             : Соединение по промежуткам
Продолжительность промежутка             : 24  мс. (0,58 видеокадр)
Время предзагрузки промежутка            : 453  мс.
Библиотека кодирования                   : LAME3.97b
Настройки программы                      : -m j -V 4 -q 3 -lowpass 18.6 --abr 192
-

Скриншот с названием фильма

-Скриншоты:
-

Еще

-

Внимание! Раздача ведётся путём добавления новых серий!

Внимание! Раздача ведётся путём добавления новых серий; при каждом добавлении создётся новый торрент. Чтобы начать докачку новой серии, пользователям необходимо сделать следующее:
(1) остановить скачивание,
(2) удалить старый торрент у себя из клиента (старые серии удалять не надо),
(3) скачать новый торрент и запустить его у себя в клиенте вместо старого, при этом указать клиенту путь в старую папку куда и должно происходить скачивание новых серий.
Ваш клиент при этом должен произвести хеширование (проверку) старой папки (если не производит сам - помогите ему сделать это), и будет докачивать только те серии которых у вас ещё нет. Старые серии при этом не удаляются, а продолжают раздаваться!
Eсли вы уже удалили старые серии, то предотвратить повторную закачку старых серий можно, отжав галочку в соответсвующих местах при запуске нового торрента.
-Добавлена восьмая серия восьмого сезона
[Торрент-статистика]
[Профиль]  [ЛС] 

ArtZak

Пол:

Стаж: 9 лет 6 месяцев

Сообщений: 2826

Репутация: 1366 [+] [-]

Откуда: Россия

Пост 21-Авг-2013 18:01 (спустя 2 часа 55 минут)

[Цитировать] 

kogesan, +3 и Золото, за оформление раздачи!
[Торрент-статистика]
[Профиль]  [ЛС] 

kogesan ®

Стаж: 9 лет 4 месяца

Сообщений: 7

Репутация: 15 [+] [-]

Пост 21-Авг-2013 19:40 (спустя 1 час 38 минут)

[Цитировать] 

ArtZak, Большое спасибо))
[Торрент-статистика]
[Профиль]  [ЛС] 

Волк

Пол:

Стаж: 9 лет 6 месяцев

Сообщений: 885

Репутация: 333 [+] [-]

Откуда: Армения

Пост 21-Авг-2013 20:42 (спустя 1 час 2 минуты)

[Цитировать] 

33174kogesan, +3 и Золото, за оформление раздачи!
+ 3 Присоидиняюсь!!!

_________________
Мои раздачи
[Торрент-статистика]
[Профиль]  [ЛС] 

kogesan ®

Стаж: 9 лет 4 месяца

Сообщений: 7

Репутация: 15 [+] [-]

Пост 22-Авг-2013 18:44 (спустя 22 часа)

[Цитировать] 

Волк, Спасибо aa
[Торрент-статистика]
[Профиль]  [ЛС] 
Показать сообщения:    
Ответить на тему

Текущее время: Сегодня 09:37

Часовой пояс: GMT + 4



Вы не можете начинать темы
Вы не можете отвечать на сообщения
Вы не можете редактировать свои сообщения
Вы не можете удалять свои сообщения
Вы не можете голосовать в опросах
Вы не можете прикреплять файлы к сообщениям
Вы не можете скачивать файлы