Декстер / Dexter / Сезон: 7 / Серии: 1-12 (12) (Маркос Сига, Тим Хантер, Кит Гордон) [2012 г., драма, детектив, криминал, триллер, HDRip] MVO (NovaFilm)

Ответить на тему
 
Автор
Сообщение

awk05 ®

Пол:

Стаж: 8 лет 11 месяцев

Сообщений: 1329

Репутация: 278 [+] [-]

Откуда: Западная Украина Ривне

Пост 14-Янв-2014 02:13

[Цитировать] 

-Декстер / Dexter- -Год выпуска: 2012
Страна: США (Showtime)
Жанр: триллер, драма, криминал, детектив
Продолжительность: ~ 00:56:00
Перевод: Профессиональный (многоголосый, закадровый)
Режиссер: Маркос Сига, Тим Хантер, Кит Гордон--В ролях: Майкл Холл, Джули Бенц, Дженифер Карпентер, Лорен Велез, Дэвид Зайяс, Джеймс Ремар и другие...--Описание: Я — Декстер. Декстер Морган. Я работаю судмедэкспертом в полиции Майами. Я не понимаю любви, мне безразличен секс, и у меня нет чувств. А еще я серийный убийца.
Мой отец был полицейским, и прекрасно обучил меня прятать улики. Обычным гражданам не стоит меня бояться, я убиваю только преступников, подонков, до которых почему-либо не смогла или не захотела добраться полиция. Я убиваю их, аккуратно распиливаю на части, и избавляюсь от трупов. Убийство для меня — творческий акт, искусство.
Но однажды… В Майами появляется некто, равный мне. Даже превзошедший меня. Сумевший меня заинтересовать. Предложивший мне своего рода товарищеское состязание. Кто этот загадочный и неуловимый «икс»..?--Качество: HDRip
Формат: AVI
Видео кодек: XviD
Аудио кодек: MP3
Видео: 656x368 (16/9), 23.976 fps, 1100 Kbps (0.17 bit/pixel)
Аудио (rus): 48 kHz, MPEG Layer 3, 2 ch, ~128.00 kbps avg
Аудио (eng): 48 kHz, MPEG Layer 3, 2 ch, ~128.00 kbps avg
--

Скриншоты


-

MI

ОбщееПолное имя : I:\Декстер (Сезон 7) NovaFilm\dexter.s07e01.hdrip.novafilm.aviФормат : AVIФормат/Информация : Audio Video InterleaveРазмер файла : 501 МбайтПродолжительность : 55 м.Общий поток : 1270 Кбит/секПрограмма кодирования : VirtualDubMod 1.5.10.3 | www.virtualdub-fr.org || (build 2550/release)Библиотека кодирования : VirtualDubMod build 2550/release
ВидеоИдентификатор : 0Формат : MPEG-4 VisualПрофиль формата : Advanced Simple@L5Параметр BVOP формата : 1Параметр QPel формата : НетПараметр GMC формата : Без точки переходаПараметр матрицы формата : ВыборочнаяИдентификатор кодека : XVIDИдентификатор кодека/Подсказка : XviDПродолжительность : 55 м.Битрейт : 1000 Кбит/секШирина : 656 пикселейВысота : 368 пикселейСоотношение сторон : 16:9Частота кадров : 23,976 кадра/секЦветовое пространство : YUVСубдискретизация насыщенности : 4:2:0Битовая глубина : 8 битТип развёртки : ПрогрессивнаяМетод сжатия : С потерямиБит/(Пиксели*Кадры) : 0.173Размер потока : 395 Мбайт (79%)Библиотека кодирования : XviD 63
Аудио #1Идентификатор : 1Формат : MPEG AudioВерсия формата : Version 1Профиль формата : Layer 3Режим : Joint stereoРасширение режима : MS StereoИдентификатор кодека : 55Идентификатор кодека/Подсказка : MP3Продолжительность : 55 м.Вид битрейта : ПостоянныйБитрейт : 128 Кбит/секКаналы : 2 каналаЧастота : 48,0 КГцМетод сжатия : С потерямиРазмер потока : 50,5 Мбайт (10%)Выравнивание : Соединение по промежуткамПродолжительность промежутка : 42 мс. (1,00 видеокадр)Время предзагрузки промежутка : 504 мс.Библиотека кодирования : LAME3.98rНастройки программы : -m j -V 4 -q 0 -lowpass 17 -b 128
Аудио #2Идентификатор : 2Формат : MPEG AudioВерсия формата : Version 1Профиль формата : Layer 3Режим : Joint stereoРасширение режима : MS StereoИдентификатор кодека : 55Идентификатор кодека/Подсказка : MP3Продолжительность : 55 м.Вид битрейта : ПостоянныйБитрейт : 128 Кбит/секКаналы : 2 каналаЧастота : 48,0 КГцМетод сжатия : С потерямиРазмер потока : 50,5 Мбайт (10%)Выравнивание : Соединение по промежуткамПродолжительность промежутка : 42 мс. (1,00 видеокадр)Время предзагрузки промежутка : 504 мс.

_________________
[Торрент-статистика]
[Профиль]  [ЛС] 

Bobo91

Стаж: 4 года 1 месяц

Сообщений: 2

Репутация: 0 [+] [-]

Пост 29-Мар-2017 01:58 (спустя 3 года 2 месяца)

[Цитировать] 

Мне эти серии понравились тоже...
[Торрент-статистика]
[Профиль]  [ЛС] 
Показать сообщения:    
Ответить на тему

Текущее время: Сегодня 20:00

Часовой пояс: GMT + 4



Вы не можете начинать темы
Вы не можете отвечать на сообщения
Вы не можете редактировать свои сообщения
Вы не можете удалять свои сообщения
Вы не можете голосовать в опросах
Вы не можете прикреплять файлы к сообщениям
Вы не можете скачивать файлы