Однажды в стране чудес / Once Upon a Time in Wonderland / Сезон 1 / Серия 1-13 из 13 (Ральф Хемекер, Пол А. Эдвардс) [2013 г., фэнтези, драма, мелодрама, приключения, WEB-DLRip] Sony Sci-F

Ответить на тему
 
Автор
Сообщение

3232fox ®

Пол:

Стаж: 3 года 9 месяцев

Сообщений: 614

Репутация: 423 [+] [-]

Откуда: Крым,Россия

Пост 02-Дек-2013 01:01

[Цитировать] 

-Однажды в стране чудес / Once Upon a Time in Wonderland--Год выпуска: 2013
Страна: США
Жанр: фэнтези, драма, мелодрама, приключения
Продолжительность: ~00:43:02
Перевод: Профессиональный (многоголосый, закадровый) - Sony Sci-F--Режиссер: Ральф Хемекер, Пол А. Эдвардс--В ролях: Софи Лоу, Джон Литгоу, Эмма Ригби, Хьюго Стил, Навин Эндрюс, Питер Гадиот, Майкл Соча, Майкл К. Адамс, Гаррет Блэк, Рон Боттитта--Описание: Эпоха викторианской Англии. Действие происходит в Лондоне, где Алиса - красивая, молодая девушка ведёт свой рассказ о каком-то необычном месте, о земле, в которую можно попасть через кроличью нору. Она видела много безумных и нереальных вещей: кот-невидимка, гусеница с кальяном, игральные карты и необычные вещи. Само собой, люди посчитали, что девушка сошла с ума. Врачи поставили перед собой цель - вылечить её, чтобы всё, что она видела там, стёрлось из её памяти. Алиса вполне готова забыть это безумие - тем более джинна, которого она очень сильно полюбила и он исчез навсегда из её жизни, однако красивый и загадочный Сайрус утверждает, что в глубине сердца она знает о том, что этот мир является настоящим, реальным... Вдруг из таинственного мира к ней приходит белый кролик и сообщает, что им очень сильно необходима помощь Алисы. Не отказывая в помощи, в ту же секунду она отправляется на помощь своим, казалось бы, странным, но верным друзьям.-- --Тип релиза: WEB-DLRip
Контейнер: AVI
Видео кодек: XviD
Аудио кодек: MP3 (MPEG1 Layer 3)
Видео: 720x400 (16:9), 23.976 fps, ~1 290 kbps, ~0.187 bit/pixel
Аудио: Rus: 48 kHz, 2 ch, ~128 kbps |Sony Sci-Fi|
Аудио Eng: 48 kHz, 2 ch, ~128 kbps |Original|--

Скриншоты

MI

General
Complete name : G:\видео\Однажды в стране чудес (Сезон 1) Sony Sci-Fi\Once.Upon.a.Time.in.Wonderland.s01e01.WEBDLRip.NewStudio.TV.avi
Format : AVI
Format/Info : Audio Video Interleave
File size : 499 MiB
Duration : 43mn 2s
Overall bit rate : 1 621 Kbps
Writing application : VirtualDubMod 1.5.10.2 (build 2540/release)
Writing library : VirtualDubMod build 2540/release
Video
ID : 0
Format : MPEG-4 Visual
Format profile : Advanced Simple@L5
Format settings, BVOP : Yes
Format settings, QPel : No
Format settings, GMC : No warppoints
Format settings, Matrix : Default (MPEG)
Codec ID : XVID
Codec ID/Hint : XviD
Duration : 43mn 2s
Bit rate : 1 290 Kbps
Width : 720 pixels
Height : 400 pixels
Display aspect ratio : 16:9
Frame rate : 23.976 fps
Color space : YUV
Chroma subsampling : 4:2:0
Bit depth : 8 bits
Scan type : Progressive
Compression mode : Lossy
Bits/(Pixel*Frame) : 0.187
Stream size : 397 MiB (80%)
Writing library : XviD 64
Audio #1
ID : 1
Format : MPEG Audio
Format version : Version 1
Format profile : Layer 3
Mode : Joint stereo
Mode extension : MS Stereo
Codec ID : 55
Codec ID/Hint : MP3
Duration : 43mn 2s
Bit rate mode : Constant
Bit rate : 128 Kbps
Channel(s) : 2 channels
Sampling rate : 48.0 KHz
Compression mode : Lossy
Stream size : 39.4 MiB (8%)
Alignment : Aligned on interleaves
Audio #2
ID : 2
Format : MPEG Audio
Format version : Version 1
Format profile : Layer 3
Mode : Joint stereo
Mode extension : MS Stereo
Codec ID : 55
Codec ID/Hint : MP3
Duration : 43mn 2s
Bit rate mode : Constant
Bit rate : 128 Kbps
Channel(s) : 2 channels
Sampling rate : 48.0 KHz
Compression mode : Lossy
Stream size : 39.4 MiB (8%)
Alignment : Aligned on interleaves


Последний раз редактировалось: 3232fox (2015-03-15 02:14), всего редактировалось 4 раз(а)
[Торрент-статистика]
[Профиль]  [ЛС] 

3232fox ®

Пол:

Стаж: 3 года 9 месяцев

Сообщений: 614

Репутация: 423 [+] [-]

Откуда: Крым,Россия

Пост 11-Дек-2013 22:19 (спустя 9 дней)

[Цитировать] 

конец
[Торрент-статистика]
[Профиль]  [ЛС] 
Показать сообщения:    
Ответить на тему

Текущее время: Сегодня 04:19

Часовой пояс: GMT + 4



Вы не можете начинать темы
Вы не можете отвечать на сообщения
Вы не можете редактировать свои сообщения
Вы не можете удалять свои сообщения
Вы не можете голосовать в опросах
Вы не можете прикреплять файлы к сообщениям
Вы не можете скачивать файлы