Крепкий орешек Джейн / Painkiller Jane / Полный первый сезон / Эпизоды 01-22 (22) [Мэттью Хатингс, Майкл Робисан, Фархад Манн, 2007, Фантастика, боевик, HDTVRip]

Ответить на тему
 
Автор
Сообщение

awk05 ®

Пол:

Стаж: 4 года 5 месяцев

Сообщений: 1352

Репутация: 275 [+] [-]

Откуда: Западная Украина Ривне

Пост 30-Ноя-2013 21:33

[Цитировать] 

--Крепкий орешек Джейн/Победившая боль / Painkiller Jane--
Год выпуска: 2007
Страна: США, Канада Sci Fi Network, Insight Film Studios, Starz Media и Kickstar Comic Arts Studio
Продолжительность: ~43 00
Жанр: Фантастика, боевик
Перевод: Профессиональный, многоголосый (ТВ3)
Сценарий: Джимми Пальмиотти, Джо Куэсада, Лоуренс Хэртцог--Режиссер: Мэттью Хатингс, Майкл Робисан, Фархад Манн--В ролях: Кристанна Локен, Роб Стюарт, Ноа Денби, Стивен Лобо, Шон О. Робертс, Натаниэль Дево--Описание: Главная героиня сериала, Джейн Васко — агент управления по борьбе с наркотиками. Позже Джейн вступает в команду агентов под руководством Андре Макбрайда, работающего на неизвестное правительственное агентство. Задача команды — обнаружение и уничтожение «нейро» — людей со сверхъестественными способностями.
В пилотном эпизоде Джейн выживает после падения с 46 этажа. Выясняется, что она имеет сверхъестественную способность — её тело быстро восстанавливается после любых полученных ею повреждений, что делает Джейн практически неуязвимой.--Качество: HDTVRip
Формат: AVI
Видео кодек: XviD
Аудио кодек: MPEG Audio
[Video]: 624x352 (1.77:1), 23.976 fps, XviD MPEG-4 ~1000 kbps avg, ~0.19 bit/pixel
[Audio Rus]: 48 kHz, MPEG Layer 3, 2 ch, ~128.00 kbps avg
[Audio Eng]: 48 kHz, MPEG Layer 3, 2 ch, ~131.06 kbps avg--

Актёрский состав

Кристанна Локен — Джейн Васко, главная героиня.
Роб Стюарт — Андре Макбрайд, лидер специальной команды.
Стивен Лобо — доктор Сет Карпентер, врач и учёный, работающий в команде.
Ноа Денби — Коннор Кинг, полевой агент команды.
Шон Оуэн Робертс — Райли Дженсен, специалист по компьютерам и связи, работающий в команде.
Натаниль Дево — Джо Уотермен, бывший смотритель подземки, где базируется команда.
Элейна Хаффман — Морин Боуэрс, лучшая подруга Джейн, перешла с ней в спецкоманду из полиции, убита в конце 12 серии.

МI

General
Complete name : E:\Сериалы новые\Painkiller Jane [torrents.ru]\Painkiller.Jane.1x01.Pilot.[dsr.rus.eng].novafilm.tv.avi
Format : AVI
Format/Info : Audio Video Interleave
File size : 391 MiB
Duration : 43mn 4s
Overall bit rate mode : Variable
Overall bit rate : 1 270 Kbps
Writing application : VirtualDubMod 1.5.10.2 (build 2542/release)
Writing library : VirtualDubMod build 2542/release
Video
ID : 0
Format : MPEG-4 Visual
Format profile : Advanced Simple@L5
Format settings, BVOP : 1
Format settings, QPel : No
Format settings, GMC : No warppoints
Format settings, Matrix : Default (H.263)
Muxing mode : Packed bitstream
Codec ID : XVID
Codec ID/Hint : XviD
Duration : 43mn 4s
Bit rate : 998 Kbps
Width : 624 pixels
Height : 352 pixels
Display aspect ratio : 16:9
Frame rate : 23.976 fps
Color space : YUV
Chroma subsampling : 4:2:0
Bit depth : 8 bits
Scan type : Progressive
Compression mode : Lossy
Bits/(Pixel*Frame) : 0.189
Stream size : 307 MiB (79%)
Writing library : XviD 1.2.0SMP (UTC 2006-01-08)
Audio #1
ID : 1
Format : MPEG Audio
Format version : Version 1
Format profile : Layer 3
Mode : Joint stereo
Mode extension : MS Stereo
Codec ID : 55
Codec ID/Hint : MP3
Duration : 43mn 4s
Bit rate mode : Constant
Bit rate : 128 Kbps
Channel count : 2 channels
Sampling rate : 48.0 KHz
Compression mode : Lossy
Stream size : 39.4 MiB (10%)
Alignment : Aligned on interleaves
Interleave, duration : 42 ms (1.00 video frame)
Interleave, preload duration : 504 ms
Audio #2
ID : 2
Format : MPEG Audio
Format version : Version 1
Format profile : Layer 3
Mode : Joint stereo
Mode extension : MS Stereo
Codec ID : 55
Codec ID/Hint : MP3
Duration : 43mn 4s
Bit rate mode : Variable
Bit rate : 128 Kbps
Channel count : 2 channels
Sampling rate : 48.0 KHz
Compression mode : Lossy
Stream size : 39.2 MiB (10%)
Alignment : Aligned on interleaves
Interleave, duration : 24 ms (0.58 video frame)
Interleave, preload duration : 492 ms

Список серий

1x01 - Pilot
1x02 - Toy Soldiers
1x03 - Piece of Mind
1x04 - Catch Me If You Can
1x05 - Nothing To Fear But Fear Itself
1x06 - Breakdown
1x07 - Higher Court
1x08 - Friendly Fire
1x09 - Trial by Fire
1x10 - Portraits of Lauren Gray
1x11 - Ghost in the Machine
1x12 - Something Nasty in the Neighborhood
1x13 - The League
1x14 - The Amazing Howiegue
1x15 - The Healer
1x16 - Thanks for the Memories
1x17 - Playback
1x18 - Jane 113
1x19 - What Lies Beneath
1x20 - The Beast of Bolnar
1x21 - Reflections
1x22 - Endgame

_________________
[Торрент-статистика]
[Профиль]  [ЛС] 

Faraon

Стаж: 3 года 3 месяца

Сообщений: 14

Репутация: 450 [+] [-]

Откуда: Москва

Пост 30-Ноя-2013 21:42 (спустя 9 минут)

[Цитировать] 

Ну вот наш человек ab по количеству скинов, правда до сотни еще далеко ab
[Торрент-статистика]
[Профиль]  [ЛС] 

Alav

Стаж: 4 года 8 месяцев

Сообщений: 13

Репутация: 7 [+] [-]

Пост 01-Дек-2013 02:22 (спустя 4 часа)

[Цитировать] 

Если её задача "обнаружение и уничтожение «нейро» — людей со сверхъестественными способностями." - то почему она себя не застрелит, "ведь она имеет сверхъестественную способность". Не понимаю я логику таких героев
[Торрент-статистика]
[Профиль]  [ЛС] 

ArtZak

Пол:

Стаж: 5 лет 1 месяц

Сообщений: 3008

Репутация: 1363 [+] [-]

Откуда: Россия

Пост 01-Дек-2013 03:09 (спустя 47 минут)

[Цитировать] 

Alav, инстинкт самосохранения (хоть я и не смотрел сериал) ab
[Торрент-статистика]
[Профиль]  [ЛС] 
Показать сообщения:    
Ответить на тему

Текущее время: Сегодня 16:41

Часовой пояс: GMT + 4



Вы не можете начинать темы
Вы не можете отвечать на сообщения
Вы не можете редактировать свои сообщения
Вы не можете удалять свои сообщения
Вы не можете голосовать в опросах
Вы не можете прикреплять файлы к сообщениям
Вы не можете скачивать файлы