Джейк 2.0 / Jake 2.0 / Сезон 1 / Серии 1-16 (16) / (Дэвид Барретт и др.) [2003 г., Фантастика, боевик, приключения, DVDRip]

Ответить на тему
 
Автор
Сообщение

awk05 ®

Пол:

Стаж: 4 года 5 месяцев

Сообщений: 1352

Репутация: 275 [+] [-]

Откуда: Западная Украина Ривне

Пост 29-Ноя-2013 18:16

[Цитировать] 

--Джейк 2.0 / Jake 2.0-- Год выпуска: 2003
Страна: США
Жанр: Фантастика, боевик, приключения
Продолжительность: ~40 мин.
Перевод: Профессиональный (многоголосый, закадровый НТВ)
Субтитры: Нет--Режиссер: Дэвид Барретт, Стив Майнер, Хорхе Монтези, Харри Уайнер--В ролях: Кристофер Горэм, Филип Энтони-Родригез, Марина Блэк, Джудит Скотт, Киган Коннор Трэйси
Описание: Он мечтал стать секретным суперагентом. И настал день, когда его желание исполнилось. После попадания в его кровь наноэлементов, Джейк Фоули становится секретным агентом национальной безопасности. Теперь он может бегать быстрее всех, прыгать выше всех, видеть дальше всех. Но за все в этой жизни надо платить...--Доп. информация:
Полный первый сезон из 16 серий
Над релизом работали
Urix, foi, zamez, Кот Леопольд, Gela, spectre71
Совместный релиз 1001 Cinema и Cinema Group Info--Качество: DVDRip
Формат: AVI
Видео кодек: MPEG-4 Visual
Аудио кодек: MP3
Видео: 624x352, 16:9, 25.000 fps, 1 085 Kbps, Bits/(Pixel*Frame): 0.198
Аудио: 48000Hz,2 channels, stereo 128Kbps--

Список серий

01. Техник
02. Тренировочный день
03. Официант
04. Оружие и девушка
05. Добро, зло и подстава
06. Последний холостяк
07. Джерри 2.0
08. Середнячок
09. Виски - танго - фокстрот
10. Шпион, который мне нравился
11. Принц и революция
12. Двойной агент
13. Заговор
14. Поймать Фоули
15. Приход мертвеца
16. Апгрейд

МI

Расположение: E:\СЕРИАЛЫ\Джейк 2.0\1 Сезон\Jake.2.0.s01e01.The.Tech.DVDRip.Rus.1001cinema.ru.avi
Имя файла: Jake.2.0.s01e01.The.Tech.DVDRip.Rus.1001cinema.ru.avi
Формат файла: .avi (AVI)
Размер файла: 354.04 MB
Длительность: 40mn 29s
Навигация по главам: Нет
Битрейт (все потоки): 1 222 Kbps
Создан при помощи: VirtualDubMod 1.5.10.2 (build 2540/release)
Использовалась библиотека: VirtualDubMod build 2540/release
Обложка: Отсутствует
Название: Jake.2.0.s01e01.The.Tech.DVDRip.Rus.1001cinema.ru
Тип потока: Видео
Длительность: 00:40:29
Кодек: MPEG-4 Visual
Кодек/ID: DX50
Размеры изображения: 624 x 352 (0.833)
Частота кадров: 25.000 fps
Размер потока: 314 MiB (89%)
Битрейт: 1 085 Kbps
Метод сжатия: Lossy
Библиотека кодирования: DivX 5.2.1 (WaffleDay) (UTC 2004-09-08)
Цветовое пространство: YUV
Тип развёртки: Progressive
Глубина: 8 bits
Тип потока: Звук #1
Длительность: 00:40:29.808
Кодек: MPEG Audio
Кодек/профиль: Layer 3
Кодек/ID: 55
Частота дискретизации: 48.0 KHz
Каналов: 2 channels
Битрейт: 128 Kbps
Битрейт/тип: Constant
Размер потока: 37.1 MiB (10%)
Метод сжатия: Lossy

_________________


Последний раз редактировалось: awk05 (2013-11-29 18:33), всего редактировалось 1 раз
[Торрент-статистика]
[Профиль]  [ЛС] 

ArtZak

Пол:

Стаж: 5 лет 1 месяц

Сообщений: 3008

Репутация: 1363 [+] [-]

Откуда: Россия

Пост 29-Ноя-2013 18:26 (спустя 10 минут)

[Цитировать] 

awk05, опять несоответствие разрешения скриншотов, техн. данным релиза:
[Торрент-статистика]
[Профиль]  [ЛС] 

awk05 ®

Пол:

Стаж: 4 года 5 месяцев

Сообщений: 1352

Репутация: 275 [+] [-]

Откуда: Западная Украина Ривне

Пост 29-Ноя-2013 18:34 (спустя 8 минут)

[Цитировать] 

использовал Image Uploader, иногда нормально работает, иногда нет, сори.

_________________
[Торрент-статистика]
[Профиль]  [ЛС] 

ArtZak

Пол:

Стаж: 5 лет 1 месяц

Сообщений: 3008

Репутация: 1363 [+] [-]

Откуда: Россия

Пост 29-Ноя-2013 18:44 (спустя 9 минут)

[Цитировать] 

awk05, теперь порядок ab
Может В IU галочку снять забыли "обрабатывать изображения"?
P.S. Эту тоже поправить не забудьте: http://brodim.com/viewtopic.php?t=9733
[Торрент-статистика]
[Профиль]  [ЛС] 
Показать сообщения:    
Ответить на тему

Текущее время: Сегодня 22:18

Часовой пояс: GMT + 4



Вы не можете начинать темы
Вы не можете отвечать на сообщения
Вы не можете редактировать свои сообщения
Вы не можете удалять свои сообщения
Вы не можете голосовать в опросах
Вы не можете прикреплять файлы к сообщениям
Вы не можете скачивать файлы