Тайные агенты / Семейные тайны/Undercovers / Сезон: 1 / Серии: 1-13 из 13 (Джей Джей Абрамс) [2010, боевик, триллер, HDTVRip] MVO (ТНТ)

Ответить на тему
 
Автор
Сообщение

awk05 ®

Пол:

Стаж: 4 года 5 месяцев

Сообщений: 1352

Репутация: 275 [+] [-]

Откуда: Западная Украина Ривне

Пост 24-Ноя-2013 20:44

[Цитировать] 

--Тайные агенты /Семейные тайны/ Undercovers-- Год выпуска: 2010
Страна: США
Жанр: боевик, триллер
Продолжительность: 00:42:00
Перевод: Профессиональный (многоголосый закадровый) ТНТ
Русские субтитры: нет--Режиссёр: Джей Джей Абрамс--В ролях: Борис Коджо, Гугу Мбата-Роу, Джералд МакРэйни, Бен Шварц, Картер МакИнтайр, Мекиа Кокс, Нэнси Ветцел, Брэд Грюнберг, Джосу Агирр, Виктор Альфьери и др.--Описание: Внешне Стивен Блум и его жена Саманта типичная семейная пара. Они владеют небольшой кейтеринговой фирмой в Лос-Анджелесе, и им помогает младшая сестра Саманты, Лиззи. Однако тайно Блумы некогда были лучшими шпионами ЦРУ. Пять лет назад они полюбили друг друга и решили уйти в отставку. Но когда их бывший коллега и друг Нэш пропадает во время слежки за русским торговцем оружием, босс Карлтон Шо обращается за помощью к Блумам. Парочка возвращается в мир шпионажа, расследование приводит их в разные уголки света — и Стивен и Саманта внезапно понимают, что их браку не хватало адреналина и романтики шпионских приключений.--Качество: HDTVRip
Формат: AVI
Видео кодек: XviD
Аудио кодек: AC3
Видео: MPEG4, XviD, 624x352 (16/9), 23.976 fps, 924 Kbps (0.168 bit/pixel)
Аудио: AC-3, 48.0 KHz, 2 ch, 192 Kbps, CBR--

Внимание! Раздача ведётся путём добавления новых серий

Внимание! Раздача ведётся путём добавления новых серий; при каждом добавлении создаётся новый торрент. Чтобы начать докачку новой серии, пользователям необходимо сделать следующее:
(1) остановить скачивание,
(2) удалить старый торрент у себя из клиента (старые серии удалять не надо),
(3) скачать новый торрент и запустить его у себя в клиенте вместо старого, при этом указать клиенту путь в старую папку куда и должно происходить скачивание новых серий.
Ваш клиент при этом должен произвести хеширование (проверку) старой папки (если не производит сам - помогите ему сделать это), и будет докачивать только те серии которых у вас ещё нет. Старые серии при этом не удаляются, а продолжают раздаваться!
Eсли вы уже удалили старые серии, то предотвратить повторную закачку старых серий можно, отжав галочку в соответствующих местах при запуске нового торрента. По возможности, желательно не удалять старые серии как можно дольше чтобы релизёр не столько продолжал раздавать старые серии, а смог сконцентрироваться на новых.

MediaInfo

Общее
Полное имя : K:\1x01 - Pilot.avi
Формат : AVI
Формат/Информация : Audio Video Interleave
Размер файла : 370 Мбайт
Продолжительность : 45 м.
Общий поток : 1125 Кбит/сек
Название фильма : Тайные агенты / Undercovers (2010)
Программа кодирования : VirtualDubMod 1.5.10.2 (build 2540/release)
Библиотека кодирования : VirtualDubMod build 2540/release
Видео
Идентификатор : 0
Формат : MPEG-4 Visual
Профиль формата : Advanced Simple@L5
Параметр BVOP формата : 2
Параметр QPel формата : Нет
Параметр GMC формата : Без точки перехода
Параметр матрицы формата : Default (H.263)
Идентификатор кодека : XVID
Идентификатор кодека/Подсказка : XviD
Продолжительность : 45 м.
Битрейт : 924 Кбит/сек
Ширина : 624 пикселя
Высота : 352 пикселя
Соотношение сторон : 16:9
Частота кадров : 23,976 кадров/сек
Цветовое пространство : YUV
Субдискретизация насыщенности : 4:2:0
Битовая глубина : 8 бит
Тип развёртки : Прогрессивная
Метод сжатия : С потерями
Бит/(Пиксели*Кадры) : 0.168
Размер потока : 304 Мбайт (82%)
Библиотека кодирования : XviD 1.2.1 (UTC 2008-12-04)
Аудио
Идентификатор : 1
Формат : AC-3
Формат/Информация : Audio Coding 3
Расширение режима : CM (complete main)
Параметр Endianness формата : Big
Идентификатор кодека : 2000
Продолжительность : 45 м.
Вид битрейта : Постоянный
Битрейт : 192 Кбит/сек
Каналы : 2 канала
Расположение каналов : Front: L R
Частота : 48,0 КГц
Битовая глубина : 16 бит
Метод сжатия : С потерями
Размер потока : 63,1 Мбайт (17%)
Выравнивание : Разделение по промежуткам
Продолжительность промежутка : 40 мс. (1,00 видеокадр)
Время предзагрузки промежутка : 500 мс.
Заголовок : Профессиональный (многоголосый закадровый) ТНТ

Скриншоты



_________________


Последний раз редактировалось: awk05 (2013-11-25 22:33), всего редактировалось 4 раз(а)
[Торрент-статистика]
[Профиль]  [ЛС] 

3rikovi4

Пол:

Стаж: 5 лет

Сообщений: 1131

Репутация: 1036 [+] [-]

Откуда: Бывший СССР

Пост 24-Ноя-2013 21:08 (спустя 23 минуты)

[Цитировать] 

Сезон 1, 2010 года. А, что следующих сезонов не было? А будут? Ведь уже 2014 год на носу. ab

_________________
Не стоит прогибаться под изменчивый мир. Пусть лучше он прогнётся под нас!
[Торрент-статистика]
[Профиль]  [ЛС] 

awk05 ®

Пол:

Стаж: 4 года 5 месяцев

Сообщений: 1352

Репутация: 275 [+] [-]

Откуда: Западная Украина Ривне

Пост 24-Ноя-2013 21:23 (спустя 15 минут)

[Цитировать] 

Сезон 1, 2010 года. А, что следующих сезонов не было? А будут? Ведь уже 2014 год на носу.
Проект 2 сезона закрыт

_________________
[Торрент-статистика]
[Профиль]  [ЛС] 
Показать сообщения:    
Ответить на тему

Текущее время: Сегодня 08:58

Часовой пояс: GMT + 4



Вы не можете начинать темы
Вы не можете отвечать на сообщения
Вы не можете редактировать свои сообщения
Вы не можете удалять свои сообщения
Вы не можете голосовать в опросах
Вы не можете прикреплять файлы к сообщениям
Вы не можете скачивать файлы